ML
     
  Уважаемый Гость!
Вы можете поддержать проект и зарегистрироваться у наших партнеров - онлайн-стратегия MyLands. При регистрации в игре Вы получите код, который сможете активировать после регистрации на pirat.ca и получить 1000 дублонов.

Ваш код:
5af7de75d3db09b6a37bc8bab71b0e87ccde73d6
 
     

Во все тяжкие / Breaking Bad / Сезон: 1 / Серии: 1-7 из 7 (Адам Бернштейн / Adam Bernstein) [2008 г., триллер, драма, криминал, BDRip, 720p] MVO (LostFilm) [Sub Rus, Eng, + Original (Eng)]

Ответить на тему
 
Автор
Сообщение

Пост 28-Янв-2014 09:58

[Q] 

TERMOS

Легенда

-Во все тяжкие / Breaking Bad
(1 сезон)
-- Производство: США
Жанр: триллер, драма, криминал
Год выпуска: 2008 г.
Продолжительность серии: ~00:48:00
Мировая премьера: 20 января 2008
Российская премьера: 17 марта 2011
Перевод: Профессиональный (многоголосый, закадровый) [LostFilm]
Оригинальный аудиопоток: английский
Режиссер: Адам Бернштейн / Adam Bernstein-В ролях: Брайан Крэнстон, Анна Ганн, Аарон Пол, Дин Норрис, Бетси Брандт, Эр Джей, Стивен Майкл Квезада, Кристен Риттер, Дэвид Хаус, Кармен Серано-Описание: Уолтер Уайт, преподаватель химии в университе. У него есть жена и сын-инвалид, жена ждет еще одного ребенка. Уолт уже не молод и в этом возрасте часто бывают кризисы, тем более нужно кормить семью, а на зарплату преподавателя не разгуляешься, поэтому он вынужден подрабатывать на автомойке, где его же студенты над ним насмехаются, а еще сын, чью инвалидность тоже постоянно осмеивают.
    Его свояк работает в Управлении по борьбе с наркотиками и однажды предлагает поучаствовать в облаве на дом, где находится лаборатория по приготовлению метамфентамина. Во время облавы Уолт случайно видит, как один дилер сбегает от облавы, им оказывается его бывший студент.
    Уолт решает заняться с ним бизнесом про приготовлению метамфетамина, так как он на изломе, что ему терять: он бросил работу на автомойке, секс с женой ограничивается только рукоблудием с ее стороны, ему поставили диагноз — неоперабельный рак легких, да и свояк постоянно говорит, что метамфетамин приносит огромные деньги. Кто еще может приготовить чистейший метамфетамин, как не учитель химии?
    Уолт и его напарник снимают трейлер и организуют там лабораторию, уехав перед тем в пустыню, подальше от глаз. Первая партия готова, напарник Уолта, Джесси идет ее реализовывать…
-
Качество видео: BDRip
Контейнер: MKV
Стандарт разрешения: 720p
Видео кодек: H.264/AVC
Аудио кодек: DTS
Видео: 1280x720 (16:9), 23.976 fps, ~7500 kbps avg
Аудио: (RUS) 48 kHz, 5.1 ch, ~1510 kbps
Аудио #2: (ENG) 48 kHz, 5.1 ch, ~1510 kbps
Cубтитры: русские, английские
Episode 1: Pilot / Пилот
Episode 2: Cat's in the Bag... / Шила в мешке не утаишь...
Episode 3: ...And the Bag's in the River / ... и мешок за спиной тоже
Episode 4: Cancer Man / Человек с раком легких
Episode 5: Gray Matter / Серое вещество
Episode 6: Crazy Handful of Nothin' / Ошалелый блеф
Episode 7: A No-Rough-Stuff-Type Deal / Прожжённые наркодельцы
Код:
General
Complete name                    : U:\Uploads\Pirat.Ca\Breaking Bad - Season 1 (2008)[BDRip.720p]\Breaking Bad.S01E01.720p.BluRay.Rus.Eng.mkv
Format                           : Matroska
File size                        : 4.25 GiB
Duration                         : 58mn 6s
Overall bit rate                 : 10.5 Mbps
Movie name                       : Breaking Bad S01E01 (2008)
Encoded date                     : UTC 2014-01-28 05:06:35
Writing application              : mkvmerge v6.0.0 ('Coming Up For Air') built on Jan 20 2013 09:52:00
Writing library                  : libebml v1.3.0 + libmatroska v1.4.0
Cover                            : Imported font from Breaking.Bad.1x01.Pilot.BDRip.720p.AC3_Track4.ass / Imported font from Breaking.Bad.1x01.Pilot.BDRip.720p.AC3_Track4.ass / Imported font from Breaking.Bad.1x01.Pilot.BDRip.720p.AC3_Track4.ass / Imported font from Breaking.Bad.1x01.Pilot.BDRip.720p.AC3_Track4.ass / Imported font from Breaking.Bad.1x01.Pilot.BDRip.720p.AC3_Track4.ass
Video
ID                               : 1
Format                           : AVC
Format/Info                      : Advanced Video Codec
Format profile                   : [email protected]
Format settings, CABAC           : Yes
Format settings, ReFrames        : 9 frames
Muxing mode                      : Container [email protected]
Codec ID                         : V_MPEG4/ISO/AVC
Duration                         : 58mn 6s
Bit rate                         : 7 444 Kbps
Width                            : 1 280 pixels
Height                           : 720 pixels
Display aspect ratio             : 16:9
Frame rate                       : 23.976 fps
Color space                      : YUV
Chroma subsampling               : 4:2:0
Bit depth                        : 8 bits
Scan type                        : Progressive
Bits/(Pixel*Frame)               : 0.337
Stream size                      : 2.94 GiB (69%)
Writing library                  : x264 core 89 r1471kGIT 1144615
Encoding settings                : cabac=1 / ref=9 / deblock=1:-3:-3 / analyse=0x3:0x133 / me=umh / subme=10 / psy=1 / psy_rd=1.10:0.00 / mixed_ref=1 / me_range=24 / chroma_me=1 / trellis=2 / 8x8dct=1 / cqm=0 / deadzone=6,4 / fast_pskip=0 / chroma_qp_offset=-2 / threads=6 / sliced_threads=0 / nr=0 / decimate=0 / interlaced=0 / constrained_intra=0 / bframes=6 / b_pyramid=2 / b_adapt=2 / b_bias=0 / direct=3 / wpredb=1 / wpredp=2 / keyint=250 / keyint_min=25 / scenecut=40 / intra_refresh=0 / rc_lookahead=60 / rc=2pass / mbtree=1 / bitrate=7444 / ratetol=1.0 / qcomp=0.60 / qpmin=10 / qpmax=51 / qpstep=4 / cplxblur=20.0 / qblur=0.5 / ip_ratio=1.40 / aq=1:0.60 / pulldown=0
Language                         : English
Audio #1
ID                               : 2
Format                           : DTS
Format/Info                      : Digital Theater Systems
Codec ID                         : A_DTS
Duration                         : 58mn 6s
Bit rate mode                    : Constant
Bit rate                         : 1 510 Kbps
Channel(s)                       : 6 channels
Channel positions                : Front: L C R, Side: L R, LFE
Sampling rate                    : 48.0 KHz
Bit depth                        : 24 bits
Stream size                      : 627 MiB (14%)
Title                            : DTS 5.1 @ 1536 kbps - Многоголосый закадровый,  LostFilm
Language                         : Russian
Audio #2
ID                               : 3
Format                           : DTS
Format/Info                      : Digital Theater Systems
Codec ID                         : A_DTS
Duration                         : 58mn 6s
Bit rate mode                    : Constant
Bit rate                         : 1 510 Kbps
Channel(s)                       : 6 channels
Channel positions                : Front: L C R, Side: L R, LFE
Sampling rate                    : 48.0 KHz
Bit depth                        : 24 bits
Stream size                      : 627 MiB (14%)
Title                            : DTS 5.1 @ 1536 kbps
Language                         : English
Text #1
ID                               : 4
Format                           : ASS
Codec ID                         : S_TEXT/ASS
Codec ID/Info                    : Advanced Sub Station Alpha
Title                            : Russian @ ASS @ Faker
Language                         : Russian
Text #2
ID                               : 5
Format                           : ASS
Codec ID                         : S_TEXT/ASS
Codec ID/Info                    : Advanced Sub Station Alpha
Title                            : English @ ASS
Language                         : English
Menu
00:00:00.000                     : en:01
00:04:07.080                     : en:02
00:16:07.216                     : en:03
00:31:41.149                     : en:04
00:48:30.658                     : en:05
00:57:12.262                     : en:06
Download / Скачать

Хотите скачать бесплатно? Зарегистрируйтесь на сайте (ссылка на регистрацию). Pirat.ca - самый быстрый торрент трекер в рунете!

Как скачивать  ·   Что такое торрент  ·   Рейтинг и ограничения

Пост 28-Янв-2014 10:31 (спустя 32 минуты)

Топик был перенесен из форума Зарубежные сериалы (Трюм) в форум Зарубежные сериалы
kugesan
 

TERMOS ®

Легенда

12015

Пост 28-Янв-2014 15:34 (спустя 5 часов)

[Q] 

Одна просьба - с раздачи не уходите! Выложу весь сериал в таком качестве. По мере поддержки) ad

_________________
[Профиль]  [ЛС] 

TERMOS ®

Легенда

12015

Пост 16-Фев-2014 21:27 (спустя 19 дней)

[Q] 

Будет старый сериал. LOST.

_________________
[Профиль]  [ЛС] 

Герасим

Штурман

Пост 12-Мар-2014 10:52 (спустя 23 дня)

[Q] 

От души ) спасибо
[Профиль]  [ЛС] 

IslandMonkey

Канонир

Пост 26-Май-2014 04:14 (спустя 2 месяца 13 дней)

[Q] 

Единственный трекер из знакомых, на котором нашёл. Раздающему респект!
[Профиль]  [ЛС] 

TERMOS ®

Легенда

12015

Пост 31-Май-2014 22:57 (спустя 5 дней)

[Q] 

IslandMonkey, az

_________________
[Профиль]  [ЛС] 

k_2

Шкипер

Пост 16-Июл-2014 00:49 (спустя 1 месяц 15 дней)

[Q] 

Автору респект!!! Всем качать!!!
[Профиль]  [ЛС] 

купетман

Шкипер

Пост 21-Июл-2014 23:35 (спустя 5 дней)

[Q] 

слышал о сериале много хорошего,решил наконец посмотреть) Спасибо!!!
[Профиль]  [ЛС] 

TERMOS ®

Легенда

12015

Пост 04-Авг-2014 18:24 (спустя 13 дней)

[Q] 

купетман, давно пора!))

_________________
[Профиль]  [ЛС] 

mir3apt

Шкипер

33

Пост 16-Сен-2014 12:03 (спустя 1 месяц 11 дней)

[Q] 

Спасибо. Будет чем на работе заняться.
[Профиль]  [ЛС] 

Crush12321

Юнга

Пост 18-Окт-2015 19:07 (спустя 1 год 1 месяц)

[Q] 

Эй, вернитесь на раздачу... Скорости нет! Совсем нет! =(
[Профиль]  [ЛС] 
Показать сообщения:    
Ответить на тему

Текущее время: Сегодня 14:14

Часовой пояс: GMT + 4



Вы не можете начинать темы
Вы не можете отвечать на сообщения
Вы не можете редактировать свои сообщения
Вы не можете удалять свои сообщения
Вы не можете голосовать в опросах
Вы не можете прикреплять файлы к сообщениям
Вы не можете скачивать файлы

▼ Вниз