ML
     
  Уважаемый Гость!
Вы можете поддержать проект и зарегистрироваться у наших партнеров - онлайн-стратегия MyLands. При регистрации в игре Вы получите код, который сможете активировать после регистрации на pirat.ca и получить 1000 дублонов.

Ваш код:
5f4e94775bc0501caff7b254e79328d304c817d9
 
     

Теория большого взрыва / The Big Bang Theory / Сезон: 1-6 (полный), Сезон: 7 (1-13 из 24) / (Марк Сендроуски, Питер Чакос, Энтони Джозеф Рич) [2007 г., ситком, HDTVRip, 480p] VO (Кураж-Бамбей) + Original (Eng) [обновляемая]

Ответить на тему
 
Автор
Сообщение

Пост 28-Янв-2014 13:30

[Q] 

Егор Цыцаркин

Морской Волк

-Теория большого взрыва / The Big Bang Theory
Сезон: 1-6 / Полный
Сезон: 7 / Серии: 1-13 (24)
-- Производство: США
Жанр: ситком
Год выпуска: 2007 г.
Продолжительность: 22 мин.
Мировая премьера: 24 сентября 2007
Российская премьера: 10 апреля 2010
Перевод: Профессиональный (одноголосый, закадровый) [Кураж-Бамбей]
Оригинальный аудиопоток: английский
Режиссер: Марк Сендроуски, Питер Чакос, Энтони Джозеф Рич-В ролях: Джонни Галэки, Джим Парсонс, Кейли Куоко, Саймон Хелберг, Кунал Найяр, Майем Биалик, Мелисса Рауш, Кэрол Энн Сьюзи, Кевин Суссман, Арти Манн, Кэти Леклерк-Описание: Два блестящих физика, Леонард и Шелдон, «великие умы», которые понимают, как «работает вселенная». Но их гениальность ничуть не помогает им общаться с людьми, особенно с женщинами. Всё начинает меняться, когда напротив них поселяется красавица Пенни.
Когда Леонард и Шелдон встречают Пенни, Леонард сразу же начинает интересоваться ею. Он видит в общении с Пенни огромную перспективу, вплоть до любви, однако Шелдон понимает, что мечтам его друга не суждено сбыться.
Стоит также отметить пару странных друзей этих физиков: Воловиц, который любит употреблять фразы на разных языках, включая русский, и Раджеш Кутрапали, теряющий дар речи при виде женщин.- -Качество видео: HDTVRip
Контейнер: AVI
Стандарт разрешения: 400p
Видео кодек: XviD
Аудио кодек: AC3
Видео: XVID, 720x400 (16:9), 23.976 fps, 1 535 - 1 685 kbps
Аудио: AC-3, 2 ch, 48.0 KHz, 192 Kbps
Cубтитры: отсутствуют-
-Сезон 1
Серии: 1-17 (17)
--Год: 2007-2008
Качество видео: HDTVRip
Контейнер: AVI
Стандарт разрешения: 400p
Видео кодек: XviD
Аудио кодек: AC3
Видео: XVID, 720x400 (16:9), 23.976 fps, 1 535 kbps
Аудио: AC-3, 2 ch, 48.0 KHz, 192 Kbps
Cубтитры: отсутствуют
General
Complete name : F:\Videos\The Big Bang Theory\Seaeon 01 [Кураж-Бамбей]\The.Big.Bang.Theory.s01e01.kuraj-bambey.avi
Format : AVI
Format/Info : Audio Video Interleave
File size : 285 MiB
Duration : 22mn 57s
Overall bit rate : 1 737 Kbps
Movie name : Теория большого взрыва - = Rip by tahiy = -
Writing application : VirtualDubMod 1.5.10.3 | www.virtualdub-fr.org || (build 2550/release)
Video
ID : 0
Format : MPEG-4 Visual
Format profile : Advanced [email protected]
Format settings, BVOP : Yes
Format settings, QPel : No
Format settings, GMC : No warppoints
Format settings, Matrix : Default (MPEG)
Codec ID : XVID
Codec ID/Hint : XviD
Duration : 22mn 57s
Bit rate : 1 535 Kbps
Width : 720 pixels
Height : 400 pixels
Display aspect ratio : 16:9
Frame rate : 23.976 fps
Color space : YUV
Chroma subsampling : 4:2:0
Bit depth : 8 bits
Scan type : Progressive
Compression mode : Lossy
Bits/(Pixel*Frame) : 0.222
Stream size : 252 MiB (88%)
Writing library : XviD 1.2.1 (UTC 2008-12-04)
Audio
ID : 1
Format : AC-3
Format/Info : Audio Coding 3
Mode extension : CM (complete main)
Format settings, Endianness : Big
Codec ID : 2000
Duration : 22mn 57s
Bit rate mode : Constant
Bit rate : 192 Kbps
Channel count : 2 channels
Channel positions : Front: L R
Sampling rate : 48.0 KHz
Bit depth : 16 bits
Compression mode : Lossy
Stream size : 31.5 MiB (11%)
Alignment : Split accross interleaves
Interleave, duration : 42 ms (1.00 video frame)
Interleave, preload duration : 500 ms



-Сезон 2
Серии: 1-23 (23)
--Год: 2008-2009
Качество видео: HDTVRip
Контейнер: AVI
Стандарт разрешения: 400p
Видео кодек: XviD
Аудио кодек: AC3
Видео: XVID, 720x400 (16:9), 23.976 fps, 1 622 kbps
Аудио: AC-3, 2 ch, 48.0 KHz, 192 Kbps
Cубтитры: отсутствуют
General
Complete name : F:\Videos\The Big Bang Theory\Seaeon 02 [Кураж-Бамбей]\The.Big.Bang.Theory.s02e01.kuraj-bambey.avi
Format : AVI
Format/Info : Audio Video Interleave
File size : 285 MiB
Duration : 21mn 51s
Overall bit rate : 1 824 Kbps
Movie name : Теория большого взрыва - = Rip by tahiy = -
Writing application : VirtualDubMod 1.5.10.3 | www.virtualdub-fr.org || (build 2550/release)
Video
ID : 0
Format : MPEG-4 Visual
Format profile : Advanced [email protected]
Format settings, BVOP : Yes
Format settings, QPel : No
Format settings, GMC : No warppoints
Format settings, Matrix : Default (MPEG)
Codec ID : XVID
Codec ID/Hint : XviD
Duration : 21mn 51s
Bit rate : 1 622 Kbps
Width : 720 pixels
Height : 400 pixels
Display aspect ratio : 16:9
Frame rate : 23.976 fps
Color space : YUV
Chroma subsampling : 4:2:0
Bit depth : 8 bits
Scan type : Progressive
Compression mode : Lossy
Bits/(Pixel*Frame) : 0.235
Stream size : 254 MiB (89%)
Writing library : XviD 1.2.1 (UTC 2008-12-04)
Audio
ID : 1
Format : AC-3
Format/Info : Audio Coding 3
Mode extension : CM (complete main)
Format settings, Endianness : Big
Codec ID : 2000
Duration : 21mn 51s
Bit rate mode : Constant
Bit rate : 192 Kbps
Channel count : 2 channels
Channel positions : Front: L R
Sampling rate : 48.0 KHz
Bit depth : 16 bits
Compression mode : Lossy
Stream size : 30.0 MiB (11%)
Alignment : Split accross interleaves
Interleave, duration : 42 ms (1.00 video frame)
Interleave, preload duration : 500 ms



-Сезон 3
Серии: 1-23 (23)
--Год: 2009-2010
Качество видео: HDTVRip
Контейнер: AVI
Стандарт разрешения: 400p
Видео кодек: XviD
Аудио кодек: AC3
Видео: XVID, 720x400 (16:9), 23.976 fps, 1 645 kbps
Аудио: AC-3, 2 ch, 48.0 KHz, 192 Kbps
Cубтитры: отсутствуют
General
Complete name : F:\Videos\The Big Bang Theory\Seaeon 03 [Кураж-Бамбей]\The.Big.Bang.Theory.s03e01.kuraj-bambey.avi
Format : AVI
Format/Info : Audio Video Interleave
File size : 285 MiB
Duration : 21mn 35s
Overall bit rate : 1 847 Kbps
Movie name : Теория большого взрыва - = Rip by tahiy = -
Writing application : VirtualDubMod 1.5.10.3 | www.virtualdub-fr.org || (build 2550/release)
Video
ID : 0
Format : MPEG-4 Visual
Format profile : Advanced [email protected]
Format settings, BVOP : Yes
Format settings, QPel : No
Format settings, GMC : No warppoints
Format settings, Matrix : Default (MPEG)
Codec ID : XVID
Codec ID/Hint : XviD
Duration : 21mn 35s
Bit rate : 1 645 Kbps
Width : 720 pixels
Height : 400 pixels
Display aspect ratio : 16:9
Frame rate : 23.976 fps
Color space : YUV
Chroma subsampling : 4:2:0
Bit depth : 8 bits
Scan type : Progressive
Compression mode : Lossy
Bits/(Pixel*Frame) : 0.238
Stream size : 254 MiB (89%)
Writing library : XviD 1.2.1 (UTC 2008-12-04)
Audio
ID : 1
Format : AC-3
Format/Info : Audio Coding 3
Mode extension : CM (complete main)
Format settings, Endianness : Big
Codec ID : 2000
Duration : 21mn 35s
Bit rate mode : Constant
Bit rate : 192 Kbps
Channel count : 2 channels
Channel positions : Front: L R
Sampling rate : 48.0 KHz
Bit depth : 16 bits
Compression mode : Lossy
Stream size : 29.6 MiB (10%)
Alignment : Split accross interleaves
Interleave, duration : 42 ms (1.00 video frame)
Interleave, preload duration : 500 ms



-Сезон 4
Серии: 1-24 (24)
--Год: 2010-2011
Качество видео: HDTVRip
Контейнер: AVI
Стандарт разрешения: 400p
Видео кодек: XviD
Аудио кодек: AC3
Видео: XVID, 720x400 (16:9), 23.976 fps, 1 660 kbps
Аудио: AC-3, 2 ch, 48.0 KHz, 192 Kbps
Cубтитры: отсутствуют
General
Complete name : F:\Videos\The Big Bang Theory\Seaeon 04 [Кураж-Бамбей]\The.Big.Bang.Theory.s04e01.kuraj-bambey.avi
Format : AVI
Format/Info : Audio Video Interleave
File size : 285 MiB
Duration : 21mn 24s
Overall bit rate : 1 862 Kbps
Movie name : Теория большого взрыва - = Rip by tahiy = -
Writing application : VirtualDubMod 1.5.10.3 | www.virtualdub-fr.org || (build 2550/release)
Video
ID : 0
Format : MPEG-4 Visual
Format profile : Advanced [email protected]
Format settings, BVOP : Yes
Format settings, QPel : No
Format settings, GMC : No warppoints
Format settings, Matrix : Default (MPEG)
Codec ID : XVID
Codec ID/Hint : XviD
Duration : 21mn 24s
Bit rate : 1 660 Kbps
Width : 720 pixels
Height : 400 pixels
Display aspect ratio : 16:9
Frame rate : 23.976 fps
Color space : YUV
Chroma subsampling : 4:2:0
Bit depth : 8 bits
Scan type : Progressive
Compression mode : Lossy
Bits/(Pixel*Frame) : 0.240
Stream size : 254 MiB (89%)
Writing library : XviD 1.2.1 (UTC 2008-12-04)
Audio
ID : 1
Format : AC-3
Format/Info : Audio Coding 3
Mode extension : CM (complete main)
Format settings, Endianness : Big
Codec ID : 2000
Duration : 21mn 24s
Bit rate mode : Constant
Bit rate : 192 Kbps
Channel count : 2 channels
Channel positions : Front: L R
Sampling rate : 48.0 KHz
Bit depth : 16 bits
Compression mode : Lossy
Stream size : 29.4 MiB (10%)
Alignment : Split accross interleaves
Interleave, duration : 42 ms (1.00 video frame)
Interleave, preload duration : 500 ms



-Сезон 5
Серии: 1-24 (24)
--Год: 2011-2012
Качество видео: HDTVRip
Контейнер: AVI
Стандарт разрешения: 400p
Видео кодек: XviD
Аудио кодек: AC3
Видео: XVID, 720x400 (16:9), 23.976 fps, 1 649 kbps
Аудио: AC-3, 2 ch, 48.0 KHz, 192 Kbps
Cубтитры: отсутствуют
General
Complete name : F:\Videos\The Big Bang Theory\Seaeon 05 [Кураж-Бамбей]\The.Big.Bang.Theory.s05e01.kuraj-bambey.avi
Format : AVI
Format/Info : Audio Video Interleave
File size : 285 MiB
Duration : 21mn 32s
Overall bit rate : 1 851 Kbps
Movie name : Теория большого взрыва - = Rip by tahiy = -
Writing application : VirtualDubMod 1.5.10.3 | www.virtualdub-fr.org || (build 2550/release)
Video
ID : 0
Format : MPEG-4 Visual
Format profile : Advanced [email protected]
Format settings, BVOP : Yes
Format settings, QPel : No
Format settings, GMC : No warppoints
Format settings, Matrix : Default (MPEG)
Codec ID : XVID
Codec ID/Hint : XviD
Duration : 21mn 32s
Bit rate : 1 649 Kbps
Width : 720 pixels
Height : 400 pixels
Display aspect ratio : 16:9
Frame rate : 23.976 fps
Color space : YUV
Chroma subsampling : 4:2:0
Bit depth : 8 bits
Scan type : Progressive
Compression mode : Lossy
Bits/(Pixel*Frame) : 0.239
Stream size : 254 MiB (89%)
Writing library : XviD 1.2.1 (UTC 2008-12-04)
Audio
ID : 1
Format : AC-3
Format/Info : Audio Coding 3
Format profile : Dolby Digital
Mode extension : CM (complete main)
Format settings, Endianness : Big
Codec ID : 2000
Duration : 21mn 32s
Bit rate mode : Constant
Bit rate : 192 Kbps
Channel count : 2 channels
Channel positions : Front: L R
Sampling rate : 48.0 KHz
Bit depth : 16 bits
Compression mode : Lossy
Stream size : 29.6 MiB (10%)
Alignment : Split accross interleaves
Interleave, duration : 42 ms (1.00 video frame)
Interleave, preload duration : 500 ms



-Сезон 6
Серии: 1-24 (24)
--Год: 2012-2013
Качество видео: HDTVRip
Контейнер: AVI
Стандарт разрешения: 400p
Видео кодек: XviD
Аудио кодек: AC3
Видео: XVID, 720x400 (16:9), 23.976 fps, 1 685 kbps
Аудио: AC-3, 2 ch, 48.0 KHz, 192 Kbps
Cубтитры: отсутствуют
General
Complete name : F:\Videos\The Big Bang Theory\Seaeon 06 [Кураж-Бамбей]\The.Big.Bang.Theory.s06e01.kuraj-bambey.avi
Format : AVI
Format/Info : Audio Video Interleave
File size : 285 MiB
Duration : 21mn 7s
Overall bit rate : 1 887 Kbps
Movie name : Теория большого взрыва - = Rip by tahiy = -
Writing application : VirtualDubMod 1.5.10.3 | www.virtualdub-fr.org || (build 2550/release)
Video
ID : 0
Format : MPEG-4 Visual
Format profile : Advanced [email protected]
Format settings, BVOP : Yes
Format settings, QPel : No
Format settings, GMC : No warppoints
Format settings, Matrix : Default (MPEG)
Codec ID : XVID
Codec ID/Hint : XviD
Duration : 21mn 7s
Bit rate : 1 685 Kbps
Width : 720 pixels
Height : 400 pixels
Display aspect ratio : 16:9
Frame rate : 23.976 fps
Color space : YUV
Chroma subsampling : 4:2:0
Bit depth : 8 bits
Scan type : Progressive
Compression mode : Lossy
Bits/(Pixel*Frame) : 0.244
Stream size : 255 MiB (89%)
Writing library : XviD 1.2.1 (UTC 2008-12-04)
Audio
ID : 1
Format : AC-3
Format/Info : Audio Coding 3
Mode extension : CM (complete main)
Format settings, Endianness : Big
Codec ID : 2000
Duration : 21mn 7s
Bit rate mode : Constant
Bit rate : 192 Kbps
Channel count : 2 channels
Channel positions : Front: L R
Sampling rate : 48.0 KHz
Bit depth : 16 bits
Compression mode : Lossy
Stream size : 29.0 MiB (10%)
Alignment : Split accross interleaves
Interleave, duration : 42 ms (1.00 video frame)
Interleave, preload duration : 500 ms



-Сезон 7
Серии: 1-13 (24)
--Год: 2013-2014
Качество видео: HDTVRip
Контейнер: AVI
Стандарт разрешения: 400p
Видео кодек: XviD
Аудио кодек: AC3
Видео: XVID, 720x400 (16:9), 23.976 fps, 1 645 kbps
Аудио: AC-3, 2 ch, 48.0 KHz, 192 Kbps
Cубтитры: отсутствуют
General
Complete name : F:\Videos\The Big Bang Theory\Seaeon 07 [Кураж-Бамбей]\The.Big.Bang.Theory.s07e01.kuraj-bambey.avi
Format : AVI
Format/Info : Audio Video Interleave
File size : 285 MiB
Duration : 21mn 35s
Overall bit rate : 1 847 Kbps
Movie name : Теория большого взрыва - = Rip by tahiy = -
Writing application : VirtualDubMod 1.5.10.3 | www.virtualdub-fr.org || (build 2550/release)
Video
ID : 0
Format : MPEG-4 Visual
Format profile : Advanced [email protected]
Format settings, BVOP : Yes
Format settings, QPel : No
Format settings, GMC : No warppoints
Format settings, Matrix : Default (MPEG)
Codec ID : XVID
Codec ID/Hint : XviD
Duration : 21mn 35s
Bit rate : 1 645 Kbps
Width : 720 pixels
Height : 400 pixels
Display aspect ratio : 16:9
Frame rate : 23.976 fps
Color space : YUV
Chroma subsampling : 4:2:0
Bit depth : 8 bits
Scan type : Progressive
Compression mode : Lossy
Bits/(Pixel*Frame) : 0.238
Stream size : 254 MiB (89%)
Writing library : XviD 1.2.1 (UTC 2008-12-04)
Audio
ID : 1
Format : AC-3
Format/Info : Audio Coding 3
Mode extension : CM (complete main)
Format settings, Endianness : Big
Codec ID : 2000
Duration : 21mn 35s
Bit rate mode : Constant
Bit rate : 192 Kbps
Channel count : 2 channels
Channel positions : Front: L R
Sampling rate : 48.0 KHz
Bit depth : 16 bits
Compression mode : Lossy
Stream size : 29.6 MiB (10%)
Alignment : Split accross interleaves
Interleave, duration : 42 ms (1.00 video frame)
Interleave, preload duration : 500 ms



-
Внимание! Раздача ведётся путём добавления новых серий; при каждом добавлении создётся новый торрент. Чтобы начать докачку новой серии, пользователям необходимо сделать следующее:
(1) остановить скачивание,
(2) удалить старый торрент у себя из клиента (старые серии удалять не надо),
(3) скачать новый торрент и запустить его у себя в клиенте вместо старого, при этом указать клиенту путь в старую папку куда и должно происходить скачивание новых серий.
Ваш клиент при этом должен произвести хеширование (проверку) старой папки (если не производит сам - помогите ему сделать это), и будет докачивать только те серии которых у вас ещё нет. Старые серии при этом не удаляются, а продолжают раздаваться!
Eсли вы уже удалили старые серии, то предотвратить повторную закачку старых серий можно, отжав галочку в соответствующих местах при запуске нового торрента.
-Раздача ведется путем добавления серий.-
Download / Скачать

Хотите скачать бесплатно? Зарегистрируйтесь на сайте (ссылка на регистрацию). Pirat.ca - самый быстрый торрент трекер в рунете!

Как скачивать  ·   Что такое торрент  ·   Рейтинг и ограничения

Francis_Drake

Флибустьер

1472

Пост 28-Янв-2014 17:22 (спустя 3 часа)

[Q] 

Лови бочку Спасибо
[Профиль]  [ЛС] 

Пост 28-Янв-2014 18:51 (спустя 1 час 29 минут)

Топик был перенесен из форума Зарубежные сериалы (Трюм) в форум Сериалы в эфире
kugesan
 

Егор Цыцаркин ®

Морской Волк

318

Пост 29-Янв-2014 19:53 (спустя 1 день 2 часа)

[Q] 

Francis_Drake, к вашим услугам)

_________________
[Профиль]  [ЛС] 

okorm

889

Пост 08-Фев-2014 20:35 (спустя 10 дней)

[Q] 

Спасибо!!!
[Профиль]  [ЛС] 

Егор Цыцаркин ®

Морской Волк

318

Пост 10-Фев-2014 13:21 (спустя 1 день 16 часов)

[Q] 

okorm, всегда пожалуйста)

_________________
[Профиль]  [ЛС] 

ss80

Флибустьер

36

Пост 14-Фев-2014 19:47 (спустя 4 дня)

[Q] 

Спасибо!!!
[Профиль]  [ЛС] 

Егор Цыцаркин ®

Морской Волк

318

Пост 15-Фев-2014 18:56 (спустя 23 часа)

[Q] 

ss80, незачто)

_________________
[Профиль]  [ЛС] 

AnLicenz

Штурман

Пост 07-Апр-2014 16:08 (спустя 1 месяц 19 дней)

[Q] 

Ребят, может кто с полуночи до 8ми утра по МСК раздать bc трафик только в этот период не жрет Пиратка рулит!
[Профиль]  [ЛС] 

gastello131

Флибустьер

159

Пост 20-Июл-2014 19:04 (спустя 3 месяца 13 дней)

[Q] 

спасибо))) Супер!
[Профиль]  [ЛС] 

Пост 28-Янв-2015 00:32 (спустя 6 месяцев 7 дней)

Топик был перенесен из форума Сериалы в эфире в форум Зарубежные сериалы
Андря
 
Показать сообщения:    
Ответить на тему

Текущее время: Сегодня 15:31

Часовой пояс: GMT + 4



Вы не можете начинать темы
Вы не можете отвечать на сообщения
Вы не можете редактировать свои сообщения
Вы не можете удалять свои сообщения
Вы не можете голосовать в опросах
Вы не можете прикреплять файлы к сообщениям
Вы не можете скачивать файлы

▼ Вниз