ML
     
  Уважаемый Гость!
Вы можете поддержать проект и зарегистрироваться у наших партнеров - онлайн-стратегия MyLands. При регистрации в игре Вы получите код, который сможете активировать после регистрации на pirat.ca и получить 1000 дублонов.

Ваш код:
2932e5898d0a27592397f70b82a5834d1e70ea19
 
     

Во все тяжкие / Breaking Bad / Сезон: 2 / Серии: 1-13 из 13 (Адам Бернштейн / Adam Bernstein) [2009 г., триллер, драма, криминал, BDRip, 720p] MVO (LostFilm) [Sub Rus, Eng, + Original (Eng)]

Ответить на тему
 
Автор
Сообщение

Пост 28-Янв-2014 13:41

[Q] 

TERMOS

Легенда

-Во все тяжкие / Breaking Bad
(2 сезон)
-- Производство: США
Жанр: триллер, драма, криминал
Год выпуска: 2009 г.
Продолжительность серии: ~00:48:00
Мировая премьера: 8 марта 2009
Российская премьера: 17 марта 2011
Перевод: Профессиональный (многоголосый, закадровый) [LostFilm]
Оригинальный аудиопоток: английский
Режиссер: Адам Бернштейн / Adam Bernstein-В ролях: Брайан Крэнстон, Анна Ганн, Аарон Пол, Дин Норрис, Бетси Брандт, Эр Джей, Стивен Майкл Квезада, Кристен Риттер, Дэвид Хаус, Кармен Серано...-Описание: Уолтер Уайт, преподаватель химии в университе. У него есть жена и сын-инвалид, жена ждет еще одного ребенка. Уолт уже не молод и в этом возрасте часто бывают кризисы, тем более нужно кормить семью, а на зарплату преподавателя не разгуляешься, поэтому он вынужден подрабатывать на автомойке, где его же студенты над ним насмехаются, а еще сын, чью инвалидность тоже постоянно осмеивают.
    Его свояк работает в Управлении по борьбе с наркотиками и однажды предлагает поучаствовать в облаве на дом, где находится лаборатория по приготовлению метамфентамина. Во время облавы Уолт случайно видит, как один дилер сбегает от облавы, им оказывается его бывший студент.
    Уолт решает заняться с ним бизнесом про приготовлению метамфетамина, так как он на изломе, что ему терять: он бросил работу на автомойке, секс с женой ограничивается только рукоблудием с ее стороны, ему поставили диагноз — неоперабельный рак легких, да и свояк постоянно говорит, что метамфетамин приносит огромные деньги. Кто еще может приготовить чистейший метамфетамин, как не учитель химии?
    Уолт и его напарник снимают трейлер и организуют там лабораторию, уехав перед тем в пустыню, подальше от глаз. Первая партия готова, напарник Уолта, Джесси идет ее реализовывать…

Благодарность: низкий поклон Lostrator-у за столь прекрасный релиз. ad cy
-
Качество видео: BDRip
Контейнер: MKV
Стандарт разрешения: 720p
Видео кодек: H.264/AVC
Аудио кодек: DTS
Видео: 1280x720 (16:9), 23.976 fps, ~7000 kbps avg
Аудио: (RUS) 48 kHz, 5.1 ch, ~1510 kbps
Аудио #2: (ENG) 48 kHz, 5.1 ch, ~1510 kbps
Cубтитры: русские (форсированные), русские (lostrator), английские
Episode 1: Seven Thirty-Seven / Семьсот Тридцать Семь
Episode 2: Grilled / Попандос
Episode 3: Bit By A Dead Bee / Укус мертвой пчелы
Episode 4: Down / На дне
Episode 5: Breakage / Бой товара
Episode 6: Peekaboo / Игра в прятки
Episode 7: Negro Y Azul / Черный и голубой
Episode 8: Better Call Saul / Лучше позвони Солу
Episode 9: 4 Days Out / Четыре дня отсутствия
Episode 10: Over / Конец бизнеса
Episode 11: Mandala / Мандала
Episode 12: Phoenix / Феникс
Episode 13: ABQ / Альбукерке
Код:
General
Complete name                    : U:\Uploads\Pirat.Ca\Breaking Bad - Season 2 (2009)[BDRip.720p]\Breaking Bad.S02E01.720p.BluRay.Rus.Eng.mkv
Format                           : Matroska
File size                        : 3.32 GiB
Duration                         : 47mn 15s
Overall bit rate                 : 10.1 Mbps
Movie name                       : BrBa 2x01
Encoded date                     : UTC 2014-01-28 08:56:30
Writing application              : mkvmerge v6.0.0 ('Coming Up For Air') built on Jan 20 2013 09:52:00
Writing library                  : libebml v1.3.0 + libmatroska v1.4.0
Cover                            : Yes / Yes / Yes / Yes / Yes / Yes / Yes / Yes
Video
ID                               : 1
Format                           : AVC
Format/Info                      : Advanced Video Codec
Format profile                   : [email protected]
Format settings, CABAC           : Yes
Format settings, ReFrames        : 9 frames
Muxing mode                      : Container [email protected]
Codec ID                         : V_MPEG4/ISO/AVC
Duration                         : 47mn 15s
Bit rate                         : 7 000 Kbps
Width                            : 1 280 pixels
Height                           : 720 pixels
Display aspect ratio             : 16:9
Frame rate                       : 23.976 fps
Color space                      : YUV
Chroma subsampling               : 4:2:0
Bit depth                        : 8 bits
Scan type                        : Progressive
Bits/(Pixel*Frame)               : 0.317
Stream size                      : 2.26 GiB (68%)
Title                            : Seven Thirty-Seven
Writing library                  : x264 core 98 r1649 20cbe10
Encoding settings                : cabac=1 / ref=9 / deblock=1:-3:-3 / analyse=0x3:0x113 / me=tesa / subme=10 / psy=1 / psy_rd=1.00:0.00 / mixed_ref=1 / me_range=16 / chroma_me=1 / trellis=2 / 8x8dct=1 / cqm=0 / deadzone=21,11 / fast_pskip=0 / chroma_qp_offset=-2 / threads=12 / sliced_threads=0 / nr=0 / decimate=0 / interlaced=0 / constrained_intra=0 / bframes=7 / b_pyramid=2 / b_adapt=2 / b_bias=0 / direct=3 / weightb=1 / weightp=2 / keyint=250 / keyint_min=25 / scenecut=40 / intra_refresh=0 / rc=2pass / mbtree=0 / bitrate=7000 / ratetol=1.0 / qcomp=0.60 / qpmin=10 / qpmax=51 / qpstep=4 / cplxblur=20.0 / qblur=0.5 / ip_ratio=1.40 / pb_ratio=1.30 / aq=1:0.70
Language                         : English
Audio #1
ID                               : 2
Format                           : DTS
Format/Info                      : Digital Theater Systems
Codec ID                         : A_DTS
Duration                         : 47mn 15s
Bit rate mode                    : Constant
Bit rate                         : 1 510 Kbps
Channel(s)                       : 6 channels
Channel positions                : Front: L C R, Side: L R, LFE
Sampling rate                    : 48.0 KHz
Bit depth                        : 24 bits
Stream size                      : 510 MiB (15%)
Title                            : DTS 5.1 @ 1536 kbps @ Lostfilm
Language                         : Russian
Audio #2
ID                               : 3
Format                           : DTS
Format/Info                      : Digital Theater Systems
Codec ID                         : A_DTS
Duration                         : 47mn 15s
Bit rate mode                    : Constant
Bit rate                         : 1 510 Kbps
Channel(s)                       : 6 channels
Channel positions                : Front: L C R, Side: L R, LFE
Sampling rate                    : 48.0 KHz
Bit depth                        : 24 bits
Stream size                      : 510 MiB (15%)
Title                            : DTS 5.1 @ 1536 kbps
Language                         : English
Text #1
ID                               : 4
Format                           : ASS
Codec ID                         : S_TEXT/ASS
Codec ID/Info                    : Advanced Sub Station Alpha
Title                            : Russian @ ASS @ Forced
Language                         : Russian
Text #2
ID                               : 5
Format                           : ASS
Codec ID                         : S_TEXT/ASS
Codec ID/Info                    : Advanced Sub Station Alpha
Title                            : Russian @ ASS @ Full by lostrator
Language                         : Russian
Text #3
ID                               : 6
Format                           : ASS
Codec ID                         : S_TEXT/ASS
Codec ID/Info                    : Advanced Sub Station Alpha
Title                            : English @ ASS
Language                         : English
Menu
00:00:00.000                     : :00:00:00.000
00:01:34.886                     : :00:01:34.886
00:16:19.395                     : :00:16:19.395
00:26:15.199                     : :00:26:15.199
00:38:55.542                     : :00:38:55.542
00:46:30.204                     : :00:46:30.204
Download / Скачать

Хотите скачать бесплатно? Зарегистрируйтесь на сайте (ссылка на регистрацию). Pirat.ca - самый быстрый торрент трекер в рунете!

Как скачивать  ·   Что такое торрент  ·   Рейтинг и ограничения

TERMOS ®

Легенда

12039

Пост 28-Янв-2014 15:42 (спустя 2 часа 1 минута)

[Q] 

Пришлось раздачу пересобрать... У релизера в исходнике все аудиодороги были с параметром:
Muxing mode : Header stripping
P.S. Третий почти готов. Нужна поддержка двух первых. Поддержите? ad

_________________
[Профиль]  [ЛС] 

Пост 28-Янв-2014 18:47 (спустя 3 часа)

Топик был перенесен из форума Зарубежные сериалы (Трюм) в форум Зарубежные сериалы
kugesan
 

mir3apt

Шкипер

33

Пост 16-Сен-2014 12:02 (спустя 7 месяцев 18 дней)

[Q] 

Вот спасибо огромное. Раздача что надо.
[Профиль]  [ЛС] 

Alejandro64

Штурман

Пост 15-Окт-2015 12:22 (спустя 1 год)

[Q] 

Друзья, поддайте скорости пожалуйста! А то в сети только один очень жадный сид, который по 100кб отдает...
[Профиль]  [ЛС] 

TERMOS ®

Легенда

12039

Пост 15-Окт-2015 20:45 (спустя 8 часов)

[Q] 

Alejandro64, этот "жадный сид" раздал этот релиз более 42 раз (1,79 ТБ). bt

_________________
[Профиль]  [ЛС] 

Maryino

Морской Волк

Пост 04-Дек-2015 02:37 (спустя 1 месяц 19 дней)

[Q] 

Включите раздачу, пожалуйста!
[Профиль]  [ЛС] 

zlodeishe

Шкипер

Пост 07-Мар-2016 20:46 (спустя 3 месяца 3 дня)

[Q] 

Спасибо!!!
Супер!

_________________
Кольт 45-го калибра бьёт 4-х тузов
[Профиль]  [ЛС] 

Амангельды

35492

Пост 08-Мар-2016 00:50 (спустя 4 часа)

[Q] 

708475А то в сети только один очень жадный сид
Боюсь, вы нежадный лич, когда станете жадным сидом, сидировать эту раздачу вы не будете, а резко соскочите.

_________________

Товарищ, верь, пройдет она,
Так называемая гласность.
И вот тогда госбезопасность
Припомнит ваши имена
Раздачи от Амангельды - ТЫНЦ
[Профиль]  [ЛС] 
Показать сообщения:    
Ответить на тему

Текущее время: Сегодня 08:02

Часовой пояс: GMT + 4



Вы не можете начинать темы
Вы не можете отвечать на сообщения
Вы не можете редактировать свои сообщения
Вы не можете удалять свои сообщения
Вы не можете голосовать в опросах
Вы не можете прикреплять файлы к сообщениям
Вы не можете скачивать файлы

▼ Вниз