ML
     
  Уважаемый Гость!
Вы можете поддержать проект и зарегистрироваться у наших партнеров - онлайн-стратегия MyLands. При регистрации в игре Вы получите код, который сможете активировать после регистрации на pirat.ca и получить 1000 дублонов.

Ваш код:
500cb7bd8d2cec9a8aba647a87ce41c4b76f06bd
 
     

Клондайк / Klondike (Сезон 1, полный, 6 серий) (Саймон Селлан Джоунс / Simon Cellan Jones) [2014г., драма, WEB-DLRip] MVO (LostFilm)

Ответить на тему
 
Автор
Сообщение

Пост 28-Янв-2014 21:16

[Q] 

kugesan

Клондайк / Klondike
«What doesn't kill you makes you a fortune»
- Русское название: Клондайк
Оригинальное название: Klondike
Страна: США, Канада
Год выпуска: 2014
Жанр: драма-Релиз: LostFilm
Перевод: Профессиональный (многоголосый, закадровый)-Премьера (мир): 6 марта 2014-Режиссер: Саймон Селлан Джоунс / Simon Cellan Jones
В главных ролях: Тим Рот, Сэм Шепард, Эбби Корниш, Джонни Симмонс, Иэн Харт, Ричард Мэдден, Конор Лесли, Тим Блейк Нельсон, Август Прю, Грег Лосон ...-Описание фильма:
В рамках цикла «Золото» телеканал Discovery запустил свой первый игровой сериал «Клондайк» (Klondike) — историческую драму о небольшой компании золотоискателей. Они собрались в долине реки Юкон во времена Золотой лихорадки, чтобы попытать счастья вместе с тысячами таких же мечтателей, которые съехались в этот снежный край со всех уголков мира.
Создатели шоу поместили своих героев в неблагоприятные погодные условия, в антисанитарию и неблагоустроенность походного городка старателей. Кроме того, золотоискатели-новички оказались в компании прожжённых авантюристов, в атмосфере всеобщего недоверия, тотальной лжи и предательства. Таким образом, «Клондайк» — это новая история о человеческих пределах, о том, как далеко можно зайти ради горстки золотых песчинок.-Сезон: 1
Серии: 6 из 6 серий
Продолжительность: ~ 00:48:00 мин серия-Качество видео: WEB-DLRip
Формат: AVI
Видеокодек: XviD
Аудиокодек: Mp3
Видео: MPEG-4 Visual at 1693 Кбит/сек: 720 x 400 (1.800) at 23.976 fps, 0.24 Бит/Пиксели
Аудио Rus: MPEG Audio at 192 Кбит/сек: 2 канала, 48,0 КГц |LostFilm|
- -
  • Эпизод 1
  • Эпизод 2
  • Эпизод 3
  • Эпизод 4
  • Эпизод 5
  • Эпизод 6
-
Код:
Общее
Полное имя                               : E:\_Сериалы\Клондайк\Klondike-1(LostFilm)\Klondike.S01E01.rus.LostFilm.TV.avi
Формат                                   : AVI
Формат/Информация                        : Audio Video Interleave
Размер файла                             : 654 Мбайт
Продолжительность                        : 48 м.
Режим общего битрейта                    : Переменный
Общий поток                              : 1893 Кбит/сек
Программа кодирования                    : Nandub v1.0rc2
Библиотека кодирования                   : Nandub build 1853/release
Видео
Идентификатор                            : 0
Формат                                   : MPEG-4 Visual
Профиль формата                          : [email protected]
Параметр BVOP формата                    : Нет
Параметр QPel формата                    : Нет
Параметр GMC формата                     : Без точки перехода
Параметр матрицы формата                 : Default (H.263)
Идентификатор кодека                     : XVID
Идентификатор кодека/Подсказка           : XviD
Продолжительность                        : 48 м.
Битрейт                                  : 1693 Кбит/сек
Ширина                                   : 720 пикселей
Высота                                   : 400 пикселей
Соотношение сторон                       : 16:9
Частота кадров                           : 23,976 кадра/сек
Цветовое пространство                    : YUV
Субдискретизация насыщенности            : 4:2:0
Битовая глубина                          : 8 бит
Тип развёртки                            : Прогрессивная
Метод сжатия                             : С потерями
Бит/(Пиксели*Кадры)                      : 0.245
Размер потока                            : 585 Мбайт (89%)
Библиотека кодирования                   : XviD 1.2.1 (UTC 2008-12-04)
Аудио
Идентификатор                            : 1
Формат                                   : MPEG Audio
Версия формата                           : Version 1
Профиль формата                          : Layer 3
Режим                                    : Joint stereo
Расширение режима                        : MS Stereo
Идентификатор кодека                     : 55
Идентификатор кодека/Подсказка           : MP3
Продолжительность                        : 48 м.
Вид битрейта                             : Переменный
Битрейт                                  : 192 Кбит/сек
Каналы                                   : 2 канала
Частота                                  : 48,0 КГц
Метод сжатия                             : С потерями
Размер потока                            : 64,7 Мбайт (10%)
Выравнивание                             : Соединение по промежуткам
Продолжительность промежутка             : 24  мс. (0,58 видеокадр)
Время предзагрузки промежутка            : 501  мс.
Библиотека кодирования                   : LAME3.97b
Настройки программы                      : -m j -V 4 -q 3 -lowpass 18.6 --abr 192
-
-Скриншоты:
-
-
Внимание! Раздача ведётся путём добавления новых серий; при каждом добавлении создётся новый торрент. Чтобы начать докачку новой серии, пользователям необходимо сделать следующее:
(1) остановить скачивание,
(2) удалить старый торрент у себя из клиента (старые серии удалять не надо),
(3) скачать новый торрент и запустить его у себя в клиенте вместо старого, при этом указать клиенту путь в старую папку куда и должно происходить скачивание новых серий.
Ваш клиент при этом должен произвести хеширование (проверку) старой папки (если не производит сам - помогите ему сделать это), и будет докачивать только те серии которых у вас ещё нет. Старые серии при этом не удаляются, а продолжают раздаваться!
Eсли вы уже удалили старые серии, то предотвратить повторную закачку старых серий можно, отжав галочку в соответсвующих местах при запуске нового торрента.
-Добавлена шестая, заключительная, серия первого сезона
Download / Скачать

Хотите скачать бесплатно? Зарегистрируйтесь на сайте (ссылка на регистрацию). Pirat.ca - самый быстрый торрент трекер в рунете!

Как скачивать  ·   Что такое торрент  ·   Рейтинг и ограничения



Последний раз редактировалось: kugesan (2014-03-24 22:26), всего редактировалось 7 раз(а)

Пост 28-Янв-2014 22:23 (спустя 1 час 6 минут)

Топик был перенесен из форума Зарубежные сериалы (Трюм) в форум Сериалы в эфире
erchine
 

dronofill

Корсар

Пост 17-Мар-2014 19:00 (спустя 1 месяц 19 дней)

[Q] 

спасибо буду ждать дальше

_________________
Мира и добра)
[Профиль]  [ЛС] 

dronofill

Корсар

Пост 17-Мар-2014 23:11 (спустя 4 часа)

[Q] 

Спасибо!!! Лови бочку спасибо

_________________
Мира и добра)
[Профиль]  [ЛС] 

kugesan ®

56664

Пост 24-Мар-2014 22:28 (спустя 6 дней)

[Q] 

Добавлена шестая, заключительная, серия первого сезона

_________________

В мире две бесконечности: вселенная и человеческая глупость - Альберт Эйнштен
«Можно вытащить человека из грязи, но нельзя вытащить грязь из человека»!
[Профиль]  [ЛС] 
Показать сообщения:    
Ответить на тему

Текущее время: Сегодня 01:42

Часовой пояс: GMT + 4



Вы не можете начинать темы
Вы не можете отвечать на сообщения
Вы не можете редактировать свои сообщения
Вы не можете удалять свои сообщения
Вы не можете голосовать в опросах
Вы не можете прикреплять файлы к сообщениям
Вы не можете скачивать файлы

▼ Вниз