ML
     
  Уважаемый Гость!
Вы можете поддержать проект и зарегистрироваться у наших партнеров - онлайн-стратегия MyLands. При регистрации в игре Вы получите код, который сможете активировать после регистрации на pirat.ca и получить 1000 дублонов.

Ваш код:
c3360d664ceb84802c84b88ed062a5d134e2ba97
 
     

Во все тяжкие / Breaking Bad / Сезон: 3 / Серии: 1-13 из 13 (Адам Бернштейн / Adam Bernstein) [2010 г., триллер, драма, криминал, BDRip, 720p] MVO (LostFilm) [Sub Rus, Eng, + Original (Eng)]

Ответить на тему
 
Автор
Сообщение

Пост 29-Янв-2014 01:33

[Q] 

TERMOS

Легенда

-Во все тяжкие / Breaking Bad
(3 сезон)
-- Производство: США
Жанр: триллер, драма, криминал
Год выпуска: 2010 г.
Продолжительность серии: ~00:48:00
Мировая премьера: 21 марта 2010
Российская премьера: 17 марта 2011
Перевод: Профессиональный (многоголосый, закадровый) [LostFilm]
Оригинальный аудиопоток: английский
Режиссер: Адам Бернштейн / Adam Bernstein-В ролях: Брайан Крэнстон, Анна Ганн, Аарон Пол, Дин Норрис, Бетси Брандт, Эр Джей, Стивен Майкл Квезада, Кристен Риттер, Дэвид Хаус, Кармен Серано...-Описание: Уолтер Уайт, преподаватель химии в университе. У него есть жена и сын-инвалид, жена ждет еще одного ребенка. Уолт уже не молод и в этом возрасте часто бывают кризисы, тем более нужно кормить семью, а на зарплату преподавателя не разгуляешься, поэтому он вынужден подрабатывать на автомойке, где его же студенты над ним насмехаются, а еще сын, чью инвалидность тоже постоянно осмеивают.
    Его свояк работает в Управлении по борьбе с наркотиками и однажды предлагает поучаствовать в облаве на дом, где находится лаборатория по приготовлению метамфентамина. Во время облавы Уолт случайно видит, как один дилер сбегает от облавы, им оказывается его бывший студент.
    Уолт решает заняться с ним бизнесом про приготовлению метамфетамина, так как он на изломе, что ему терять: он бросил работу на автомойке, секс с женой ограничивается только рукоблудием с ее стороны, ему поставили диагноз — неоперабельный рак легких, да и свояк постоянно говорит, что метамфетамин приносит огромные деньги. Кто еще может приготовить чистейший метамфетамин, как не учитель химии?
    Уолт и его напарник снимают трейлер и организуют там лабораторию, уехав перед тем в пустыню, подальше от глаз. Первая партия готова, напарник Уолта, Джесси идет ее реализовывать…

Благодарность: Низкий поклон Lostrator-у за столь прекрасный релиз. ad cy
-
Качество видео: BDRip
Контейнер: MKV
Стандарт разрешения: 720p
Видео кодек: H.264/AVC
Аудио кодек: DTS
Видео: 1280x720 (16:9), 23.976 fps, ~7000 kbps avg
Аудио: (RUS) 48 kHz, 5.1 ch, ~1510 kbps
Аудио #2: (ENG) 48 kHz, 5.1 ch, ~1510 kbps
Cубтитры: русские (форсированные), русские (lostrator), английские
Episode 1: No Mas / Хватит!
Episode 2: Caballo Sin Nombre / Безымянный Конь
Episode 3: I.F.T / Я трахлась с Тедом
Episode 4: Green Light / Зеленый Свет
Episode 5: Mas / Снова В Деле
Episode 6: Sunset / Закат
Episode 7: One Minute / Одна Минута
Episode 8: I See You / Вижу тебя
Episode 9: Kafkaesque / В Стиле Кафки
Episode 10: Fly / Муха
Episode 11: Abiquiu / Эбикью
Episode 12: Half Measures / Полумеры
Episode 13: Full Measures / Полные меры
Код:
General
Complete name                    : U:\Uploads\Pirat.Ca\Breaking Bad - Season 3 (2010)[BDRip.720p]\Breaking.Bad.S03E01.No.Mas.720p.BDRip.Rus.Eng.mkv
Format                           : Matroska
File size                        : 3.31 GiB
Duration                         : 47mn 12s
Overall bit rate                 : 10.0 Mbps
Movie name                       : BrBa 3x01
Encoded date                     : UTC 2014-01-28 11:02:51
Writing application              : mkvmerge v6.0.0 ('Coming Up For Air') built on Jan 20 2013 09:52:00
Writing library                  : libebml v1.3.0 + libmatroska v1.4.0
Cover                            : Yes / Yes / Yes / Yes / Yes / Yes
Video
ID                               : 1
Format                           : AVC
Format/Info                      : Advanced Video Codec
Format profile                   : [email protected]
Format settings, CABAC           : Yes
Format settings, ReFrames        : 9 frames
Muxing mode                      : Container [email protected]
Codec ID                         : V_MPEG4/ISO/AVC
Duration                         : 47mn 12s
Bit rate                         : 7 000 Kbps
Width                            : 1 280 pixels
Height                           : 720 pixels
Display aspect ratio             : 16:9
Frame rate                       : 23.976 fps
Color space                      : YUV
Chroma subsampling               : 4:2:0
Bit depth                        : 8 bits
Scan type                        : Progressive
Bits/(Pixel*Frame)               : 0.317
Stream size                      : 2.24 GiB (68%)
Title                            : No Mas
Writing library                  : x264 core 114 r1900 60ef1f8
Encoding settings                : cabac=1 / ref=9 / deblock=1:-3:-3 / analyse=0x3:0x113 / me=umh / subme=9 / psy=1 / psy_rd=1.00:0.00 / mixed_ref=1 / me_range=32 / chroma_me=1 / trellis=1 / 8x8dct=1 / cqm=0 / deadzone=21,11 / fast_pskip=0 / chroma_qp_offset=-2 / threads=18 / sliced_threads=0 / nr=0 / decimate=0 / interlaced=0 / constrained_intra=0 / bframes=6 / b_pyramid=2 / b_adapt=1 / b_bias=0 / direct=1 / weightb=1 / open_gop=0 / weightp=2 / keyint=250 / keyint_min=23 / scenecut=40 / intra_refresh=0 / rc_lookahead=40 / rc=2pass / mbtree=1 / bitrate=7000 / ratetol=1.0 / qcomp=0.60 / qpmin=0 / qpmax=69 / qpstep=4 / cplxblur=20.0 / qblur=0.5 / ip_ratio=1.40 / aq=1:0.80
Language                         : English
Audio #1
ID                               : 2
Format                           : DTS
Format/Info                      : Digital Theater Systems
Codec ID                         : A_DTS
Duration                         : 47mn 12s
Bit rate mode                    : Constant
Bit rate                         : 1 510 Kbps
Channel(s)                       : 6 channels
Channel positions                : Front: L C R, Side: L R, LFE
Sampling rate                    : 48.0 KHz
Bit depth                        : 16 bits
Stream size                      : 510 MiB (15%)
Title                            : DTS 5.1 @ 1536 kbps @ Lostfilm
Language                         : Russian
Audio #2
ID                               : 3
Format                           : DTS
Format/Info                      : Digital Theater Systems
Codec ID                         : A_DTS
Duration                         : 47mn 12s
Bit rate mode                    : Constant
Bit rate                         : 1 510 Kbps
Channel(s)                       : 6 channels
Channel positions                : Front: L C R, Side: L R, LFE
Sampling rate                    : 48.0 KHz
Bit depth                        : 16 bits
Stream size                      : 510 MiB (15%)
Title                            : DTS 5.1 @ 1536 kbps
Language                         : English
Text #1
ID                               : 4
Format                           : ASS
Codec ID                         : S_TEXT/ASS
Codec ID/Info                    : Advanced Sub Station Alpha
Title                            : Russian @ ASS @ Forced
Language                         : Russian
Text #2
ID                               : 5
Format                           : ASS
Codec ID                         : S_TEXT/ASS
Codec ID/Info                    : Advanced Sub Station Alpha
Title                            : Russian @ ASS @ Full by lostrator
Language                         : Russian
Text #3
ID                               : 6
Format                           : ASS
Codec ID                         : S_TEXT/ASS
Codec ID/Info                    : Advanced Sub Station Alpha
Language                         : English
Menu
00:00:00.000                     : en:00:00:00.000
00:04:13.044                     : en:00:04:13.044
00:13:27.807                     : en:00:13:27.807
00:25:12.511                     : en:00:25:12.511
00:36:00.367                     : en:00:36:00.367
00:46:29.578                     : en:00:46:29.578
Download / Скачать

Хотите скачать бесплатно? Зарегистрируйтесь на сайте (ссылка на регистрацию). Pirat.ca - самый быстрый торрент трекер в рунете!

Как скачивать  ·   Что такое торрент  ·   Рейтинг и ограничения

Nornik

Шкипер

Пост 08-Мар-2014 14:18 (спустя 1 месяц 10 дней)

[Q] 

Спасибо, но раздайте кто может. Буду очень признателен.
[Профиль]  [ЛС] 

Сергей_Сергей

Корсар

Пост 15-Май-2014 20:53 (спустя 2 месяца 7 дней)

[Q] 

хороший сериал! Раздающему респект!
[Профиль]  [ЛС] 

TERMOS ®

Легенда

12069

Пост 31-Май-2014 23:10 (спустя 16 дней)

[Q] 

Сергей_Сергей, спасибо! ad

_________________
[Профиль]  [ЛС] 

TUS7884

Флибустьер

Пост 09-Июн-2014 17:47 (спустя 8 дней)

[Q] 

о да!!!!! Всем качать!!!
[Профиль]  [ЛС] 

mir3apt

Шкипер

33

Пост 18-Сен-2014 15:51 (спустя 3 месяца 8 дней)

[Q] 

Качаем дальше.
[Профиль]  [ЛС] 

che_gevara1

Корсар

Пост 08-Окт-2014 23:14 (спустя 20 дней)

[Q] 

хороший сериал альбукерки жжёёт Спасибо!!!
[Профиль]  [ЛС] 

mayruslan

Канонир

Пост 07-Дек-2014 15:03 (спустя 1 месяц 29 дней)

[Q] 

встаньте на раздачу, пожалуйста!
[Профиль]  [ЛС] 

nata456

Шкипер

Пост 07-Янв-2015 14:26 (спустя 30 дней)

[Q] 

Раздающему респект!
[Профиль]  [ЛС] 

Ishtori

Шкипер

Пост 28-Май-2015 13:33 (спустя 4 месяца 20 дней)

[Q] 

сериал отличный! спасибо за раздачу!
[Профиль]  [ЛС] 

Alejandro64

Штурман

Пост 16-Окт-2015 06:04 (спустя 4 месяца 18 дней)

[Q] 

Друзья, привет! Поддайте газу, пожалуйста!
[Профиль]  [ЛС] 
Показать сообщения:    
Ответить на тему

Текущее время: Сегодня 10:05

Часовой пояс: GMT + 4



Вы не можете начинать темы
Вы не можете отвечать на сообщения
Вы не можете редактировать свои сообщения
Вы не можете удалять свои сообщения
Вы не можете голосовать в опросах
Вы не можете прикреплять файлы к сообщениям
Вы не можете скачивать файлы

▼ Вниз