ML
     
  Уважаемый Гость!
Вы можете поддержать проект и зарегистрироваться у наших партнеров - онлайн-стратегия MyLands. При регистрации в игре Вы получите код, который сможете активировать после регистрации на pirat.ca и получить 1000 дублонов.

Ваш код:
5af7de75d3db09b6a37bc8bab71b0e87ccde73d6
 
     

Во все тяжкие / Breaking Bad / Сезон: 4 / Серии: 1-13 из 13 (Адам Бернштейн / Adam Bernstein) [2011 г., триллер, драма, криминал, BDRip, 720p] MVO (LostFilm) [Sub Rus, Eng, + Original (Eng)]

Ответить на тему
 
Автор
Сообщение

Пост 29-Янв-2014 03:55

[Q] 

TERMOS

Легенда

-Во все тяжкие / Breaking Bad
(4 сезон)
-- Производство: США
Жанр: триллер, драма, криминал
Год выпуска: 2011 г.
Продолжительность серии: ~00:48:00
Мировая премьера: 17 июля 2011
Российская премьера: 20 июля 2011
Перевод: Профессиональный (многоголосый, закадровый) [LostFilm]
Оригинальный аудиопоток: английский
Режиссер: Адам Бернштейн / Adam Bernstein-В ролях: Брайан Крэнстон, Анна Ганн, Аарон Пол, Дин Норрис, Бетси Брандт, Эр Джей, Стивен Майкл Квезада, Джанкарло Эспосито, Боб Оденкирк, Джонатан Бэнкс...-Описание: Основная канва сюжета развивается вокруг школьного учителя химии Уолтера Уайта, который узнаёт, что он болен раком лёгких. Учитывая сложное финансовое состояние дел семьи, а также перспективы (жена Уолтера, Скайлер, беременна вторым ребёнком, а у сына детский паралич), Уолтер решается на аферу по приготовлению наркотика метамфетамина. Для этого привлекается бывший ученик Джесси Пинкман, когда-то исключенный из школы при активном содействии Уолтера, недавно потерявший партнёра по изготовлению наркотика, знающий «бизнес».
Благодарность: Низкий поклон Lostrator-у за столь прекрасный релиз.
ad cy-
Качество видео: BDRip
Контейнер: MKV
Стандарт разрешения: 720p
Видео кодек: H.264/AVC
Аудио кодек: AC3
Видео: 1280x720, 23.976 fps, ~6000 kbps avg
Аудио: (RUS) 48 kHz, 3/2 (L,C,R,l,r) + LFE ch, ~640.00 kbps
Аудио #2: (ENG) 48 kHz, 3/2 (L,C,R,l,r) + LFE ch, ~640.00 kbps
Cубтитры: русские (форсированные), русские (lostrator), английские
Episode 1: Box Cutter / Канцелярский нож
Episode 2: Thirty-Eight Snub / 38 Калибр
Episode 3: Open House / День Открытых Дверей
Episode 4: Bullet Points / Ключевые Моменты (Пулевые Отверстия)
Episode 5: Shotgun / Дробовик
Episode 6: Cornered / Припёртые к стенке
Episode 7: Problem Dog / Хромой Пёс
Episode 8: Episode 8: Hermanos / Братья
Episode 9: Bug / Жучок
Episode 10: Salud / На Здоровье!
Episode 11: Crawl Space / Подпол
Episode 12: End Times / Пора Заканчивать
Episode 13: Face Off / Без Лица
Код:
General
Complete name                    : U:\Uploads\Pirat.Ca\Breaking Bad - Season 4 (2011)[BDRip.720p]\Breaking.Bad.S04E01.720p.BluRay.Rus.Eng.mkv
Format                           : Matroska
File size                        : 2.40 GiB
Duration                         : 47mn 11s
Overall bit rate                 : 7 278 Kbps
Movie name                       : Breaking Bad - Season 4 Episode 01
Encoded date                     : UTC 2014-01-28 22:49:20
Writing application              : mkvmerge v6.0.0 ('Coming Up For Air') built on Jan 20 2013 09:52:00
Writing library                  : libebml v1.3.0 + libmatroska v1.4.0
Video
ID                               : 1
Format                           : AVC
Format/Info                      : Advanced Video Codec
Format profile                   : [email protected]
Format settings, CABAC           : Yes
Format settings, ReFrames        : 9 frames
Format settings, GOP             : M=1, N=32
Muxing mode                      : Container [email protected]
Codec ID                         : V_MPEG4/ISO/AVC
Duration                         : 47mn 11s
Bit rate                         : 6 000 Kbps
Width                            : 1 280 pixels
Height                           : 720 pixels
Display aspect ratio             : 16:9
Frame rate                       : 23.976 fps
Color space                      : YUV
Chroma subsampling               : 4:2:0
Bit depth                        : 8 bits
Scan type                        : Progressive
Bits/(Pixel*Frame)               : 0.272
Stream size                      : 1.93 GiB (80%)
Title                            : Breakin Bad S04E01 - Box Cutter
Writing library                  : x264 core 116 r2057 0ba8a9c
Encoding settings                : cabac=1 / ref=9 / deblock=1:-3:-3 / analyse=0x3:0x133 / me=umh / subme=10 / psy=1 / psy_rd=1.00:0.00 / mixed_ref=1 / me_range=32 / chroma_me=1 / trellis=2 / 8x8dct=1 / cqm=0 / deadzone=21,11 / fast_pskip=0 / chroma_qp_offset=-2 / threads=14 / sliced_threads=0 / nr=0 / decimate=0 / interlaced=0 / bluray_compat=0 / constrained_intra=0 / bframes=7 / b_pyramid=2 / b_adapt=2 / b_bias=0 / direct=3 / weightb=1 / open_gop=0 / weightp=2 / keyint=250 / keyint_min=23 / scenecut=40 / intra_refresh=0 / rc_lookahead=40 / rc=2pass / mbtree=0 / bitrate=6000 / ratetol=1.0 / qcomp=0.65 / qpmin=0 / qpmax=40 / qpstep=4 / cplxblur=20.0 / qblur=0.5 / vbv_maxrate=50000 / vbv_bufsize=50000 / nal_hrd=none / ip_ratio=1.25 / pb_ratio=1.25 / aq=1:0.65
Language                         : English
Audio #1
ID                               : 2
Format                           : AC-3
Format/Info                      : Audio Coding 3
Mode extension                   : CM (complete main)
Codec ID                         : A_AC3
Duration                         : 47mn 11s
Bit rate mode                    : Constant
Bit rate                         : 640 Kbps
Channel(s)                       : 6 channels
Channel positions                : Front: L C R, Side: L R, LFE
Sampling rate                    : 48.0 KHz
Bit depth                        : 16 bits
Stream size                      : 216 MiB (9%)
Title                            : LostFilm @ DD 5.1 640 kbps
Language                         : Russian
Audio #2
ID                               : 3
Format                           : AC-3
Format/Info                      : Audio Coding 3
Mode extension                   : CM (complete main)
Codec ID                         : A_AC3
Duration                         : 47mn 11s
Bit rate mode                    : Constant
Bit rate                         : 640 Kbps
Channel(s)                       : 6 channels
Channel positions                : Front: L C R, Side: L R, LFE
Sampling rate                    : 48.0 KHz
Bit depth                        : 16 bits
Stream size                      : 216 MiB (9%)
Title                            : Original @ DD 5.1 640 kbps
Language                         : English
Text #1
ID                               : 4
Format                           : ASS
Codec ID                         : S_TEXT/ASS
Codec ID/Info                    : Advanced Sub Station Alpha
Title                            : Forsed by lostrator
Language                         : Russian
Text #2
ID                               : 5
Format                           : ASS
Codec ID                         : S_TEXT/ASS
Codec ID/Info                    : Advanced Sub Station Alpha
Title                            : Russian by lostrator
Language                         : Russian
Text #3
ID                               : 6
Format                           : UTF-8
Codec ID                         : S_TEXT/UTF8
Codec ID/Info                    : UTF-8 Plain Text
Title                            : Original
Language                         : English
Menu
00:00:00.000                     : en:00:00:00.000
00:04:47.829                     : en:00:04:47.829
00:16:28.613                     : en:00:16:28.613
00:26:12.404                     : en:00:26:12.404
00:37:31.458                     : en:00:37:31.458
00:46:27.785                     : en:00:46:27.785
Download / Скачать

Хотите скачать бесплатно? Зарегистрируйтесь на сайте (ссылка на регистрацию). Pirat.ca - самый быстрый торрент трекер в рунете!

Как скачивать  ·   Что такое торрент  ·   Рейтинг и ограничения

TERMOS ®

Легенда

12015

Пост 30-Янв-2014 10:00 (спустя 1 день 6 часов)

[Q] 

Пятый и последний сезон пока доступен только в WEB. Но в максимальном качестве. Сегодня залью. ad

_________________
[Профиль]  [ЛС] 

sasha12

Штурман

Пост 07-Май-2014 18:53 (спустя 3 месяца 8 дней)

[Q] 

спасибо Спасибо!!! Автору респект!!!
[Профиль]  [ЛС] 

Сергей_Сергей

Корсар

Пост 15-Май-2014 22:10 (спустя 8 дней)

[Q] 

хороший сериал! Мне понравилось
[Профиль]  [ЛС] 

TERMOS ®

Легенда

12015

Пост 31-Май-2014 23:11 (спустя 16 дней)

[Q] 

sasha12, Сергей_Сергей, и вам спасибо! bs

_________________
[Профиль]  [ЛС] 

TUS7884

Флибустьер

Пост 09-Июн-2014 17:45 (спустя 8 дней)

[Q] 

просто тащусь от этого сериала Всем качать!!! Лови бочку
[Профиль]  [ЛС] 

Ishtori

Шкипер

Пост 04-Июн-2016 15:16 (спустя 1 год 11 месяцев)

[Q] 

спасибо за раздачу!!
[Профиль]  [ЛС] 
Показать сообщения:    
Ответить на тему

Текущее время: Сегодня 14:11

Часовой пояс: GMT + 4



Вы не можете начинать темы
Вы не можете отвечать на сообщения
Вы не можете редактировать свои сообщения
Вы не можете удалять свои сообщения
Вы не можете голосовать в опросах
Вы не можете прикреплять файлы к сообщениям
Вы не можете скачивать файлы

▼ Вниз