ML
     
  Уважаемый Гость!
Вы можете поддержать проект и зарегистрироваться у наших партнеров - онлайн-стратегия MyLands. При регистрации в игре Вы получите код, который сможете активировать после регистрации на pirat.ca и получить 1000 дублонов.

Ваш код:
e6008d9811a0b6a1393c3dc51ecd7bc35637bc21
 
     

Во все тяжкие / Breaking Bad / Сезон: 5 / Серии: 1-16 из 16 (Адам Бернштейн / Adam Bernstein) [2012-2013 гг., криминал, драма, триллер, iTunes WEB-DL, 1080p] MVO (LostFilm) [Sub Rus, Eng, + Original (Eng)]

Ответить на тему
 
Автор
Сообщение

Пост 30-Янв-2014 22:35

[Q] 

TERMOS

Легенда

-Во все тяжкие / Breaking Bad
(5 сезон)
-- Производство: США
Жанр: криминал, драма, триллер
Год выпуска: 2012 -2013 гг.
Продолжительность серии: ~00:48:00
Мировая премьера: 15 июля 2012
Российская премьера: 18 июля 2012
Перевод: Профессиональный (многоголосый, закадровый) [LostFilm ]
Оригинальный аудиопоток: английский
Режиссер: Адам Бернштейн / Adam Bernstein-В ролях: Брайан Крэнстон, Анна Ганн, Аарон Пол, Дин Норрис, Бетси Брандт, Эр Джей, Стивен Майкл Квезада, Джанкарло Эспосито, Боб Оденкирк, Джонатан Бэнкс...-Описание: Уолтер Уайт стал торговцем наркотиками по стечению обстоятельств. Его сын инвалид, жена была беременна вторым ребенком, а денег скромному преподавателю химии в школе катастрофически не хватало. Подработка на автомойке давала совсем немного денег, зато забирала много сил у уже немолодого человека. Однажды он узнал, что его бывший ученик торгует наркотиками, и предложил тому заняться продажей метамфетамина. Для его производства у химика есть все необходимые знания, и теперь на улицах Альбукерке, штат Нью-Мексико можно купить метамфетамин, изготовляемый в трейлере где то далеко в пустыне от города, который к тому же родственник сотрудника отдела полиции по борьбе с наркотиками. Это и позволяет Уолтеру быть в курсе планов полиции по выявлению и задержанию действующих в городе наркодилеров.
Благодарность: Низкий поклон CEZAR-у за столь прекрасный релиз. ad cy
-
Качество видео: iTunes WEB-DL
Контейнер: MKV
Стандарт разрешения: 1080p
Видео кодек: H.264/AVC
Аудио кодек: AC3
Видео: 1916x1076, 23.976 fps, ~5100 kbps avg
Аудио: (RUS) 48 kHz, 3/2 (L,C,R,l,r) + LFE ch, ~384.00 kbps
Аудио #2: (ENG) 48 kHz, 3/2 (L,C,R,l,r) + LFE ch, ~384.00 kbps
Cубтитры: русские, английские
Episode 1: Live Free or Die / Живи Свободным или Умри
Episode 2: Madrigal / Мадригал
Episode 3: Hazard Pay / Опасные Условия
Episode 4: Fifty-One / 51
Episode 5: Dead Freight / Недогруз
Episode 6: Buyout / Выкуп
Episode 7: Everybody Wins / Побеждают Все
Episode 8: Gliding Over All / Паря Над Всем
Episode 9: Blood Money / Кровавые Деньги
Episode 10: Buried / Зарытое
Episode 11: Confessions / Признания
Episode 12: Rapid Dog / Бешеный Пёс
Episode 13: To'hajiilee / Тохаджили
Episode 14: Ozymandias / Озимандий
Episode 15: Granite State / Гранитный Штат
Episode 16: Felina / Фелина
Код:
General
Complete name                    : U:\Uploads\Pirat.Ca\Breaking Bad - Season 5 (2012)[WEB-DL.1080p]\Breaking.Bad.S05E03.1080p.WEB-DL.DD5.1.H264.rus-CEZAR.mkv
Format                           : Matroska
File size                        : 1.98 GiB
Duration                         : 47mn 10s
Overall bit rate                 : 6 024 Kbps
Encoded date                     : UTC 2013-08-11 09:03:15
Writing application              : mkvmerge v6.3.0 ('You can't stop me!') built on Jun 28 2013 20:09:41
Writing library                  : libebml v1.3.0 + libmatroska v1.4.0
Video
ID                               : 1
Format                           : AVC
Format/Info                      : Advanced Video Codec
Format profile                   : [email protected]
Format settings, CABAC           : Yes
Format settings, ReFrames        : 4 frames
Format settings, GOP             : M=2, N=26
Muxing mode                      : Container [email protected]
Codec ID                         : V_MPEG4/ISO/AVC
Duration                         : 47mn 9s
Bit rate mode                    : Variable
Bit rate                         : 5 136 Kbps
Width                            : 1 920 pixels
Height                           : 1 080 pixels
Display aspect ratio             : 16:9
Frame rate                       : 23.976 fps
Color space                      : YUV
Chroma subsampling               : 4:2:0
Bit depth                        : 8 bits
Scan type                        : Progressive
Bits/(Pixel*Frame)               : 0.103
Stream size                      : 1.69 GiB (85%)
Color primaries                  : BT.709-5, BT.1361, IEC 61966-2-4, SMPTE RP177
Transfer characteristics         : BT.709-5, BT.1361
Matrix coefficients              : BT.709-5, BT.1361, IEC 61966-2-4 709, SMPTE RP177
Audio #1
ID                               : 2
Format                           : AC-3
Format/Info                      : Audio Coding 3
Mode extension                   : CM (complete main)
Codec ID                         : A_AC3
Duration                         : 47mn 10s
Bit rate mode                    : Constant
Bit rate                         : 384 Kbps
Channel(s)                       : 6 channels
Channel positions                : Front: L C R, Side: L R, LFE
Sampling rate                    : 48.0 KHz
Bit depth                        : 16 bits
Stream size                      : 130 MiB (6%)
Title                            : Lostfilm
Language                         : Russian
Audio #2
ID                               : 3
Format                           : AC-3
Format/Info                      : Audio Coding 3
Mode extension                   : CM (complete main)
Codec ID                         : A_AC3
Duration                         : 47mn 10s
Bit rate mode                    : Constant
Bit rate                         : 384 Kbps
Channel(s)                       : 6 channels
Channel positions                : Front: L C R, Side: L R, LFE
Sampling rate                    : 48.0 KHz
Bit depth                        : 16 bits
Stream size                      : 130 MiB (6%)
Language                         : English
Text #1
ID                               : 4
Format                           : UTF-8
Codec ID                         : S_TEXT/UTF8
Codec ID/Info                    : UTF-8 Plain Text
Language                         : Russian
Text #2
ID                               : 5
Format                           : UTF-8
Codec ID                         : S_TEXT/UTF8
Codec ID/Info                    : UTF-8 Plain Text
Language                         : English
Menu
00:00:00.000                     : en:Chapter 1
00:03:41.554                     : en:Chapter 2
00:19:51.956                     : en:Chapter 3
00:31:19.128                     : en:Chapter 4
00:37:27.453                     : en:Chapter 5
00:46:32.672                     : en:Chapter 6
Download / Скачать

Хотите скачать бесплатно? Зарегистрируйтесь на сайте (ссылка на регистрацию). Pirat.ca - самый быстрый торрент трекер в рунете!

Как скачивать  ·   Что такое торрент  ·   Рейтинг и ограничения

Пост 30-Янв-2014 23:30 (спустя 55 минут)

Топик был перенесен из форума Зарубежные сериалы (Трюм) в форум Зарубежные сериалы
kugesan
 

sturz

Юнга

Пост 02-Фев-2014 13:36 (спустя 2 дня 15 часов)

[Q] 

чувак каковы шансы что я до пенсии скачаю? ЗЫ а мне всего лишь 22
[Профиль]  [ЛС] 

yasheroff

Морской Волк

87

Пост 20-Апр-2014 02:27 (спустя 2 месяца 17 дней)

[Q] 

Спасибо! Стараюсь сидеть на раздаче почаще, дабы все могли насладиться просмотром этого чудесного сериала :)
[Профиль]  [ЛС] 

TERMOS ®

Легенда

12046

Пост 25-Апр-2014 17:05 (спустя 5 дней)

[Q] 

yasheroff, отрадно слышать. Спасибо за помощь. bs

_________________
[Профиль]  [ЛС] 

TERMOS ®

Легенда

12046

Пост 02-Май-2014 07:50 (спустя 6 дней)

[Q] 

На сети появился "Во Все Тяжкие / Breaking Bad [Season 5] (2012) 1080p BD-Remux" на 183.08 GB. Надо кому?

_________________
[Профиль]  [ЛС] 

Сергей_Сергей

Корсар

Пост 15-Май-2014 22:11 (спустя 13 дней)

[Q] 

хороший сериал! Спасибо!!!
[Профиль]  [ЛС] 

s_s

Гроза морей

Пост 20-Июн-2014 11:07 (спустя 1 месяц 4 дня)

[Q] 

большое спасибо:)

_________________
в себе самом добра со злом
[Профиль]  [ЛС] 

vk

Пост 27-Авг-2014 17:46 (спустя 2 месяца 7 дней)

[Q] 

Спасибо за отличное качество!
[Профиль]  [ЛС] 

TERMOS ®

Легенда

12046

Пост 28-Авг-2014 16:19 (спустя 22 часа)

[Q] 

Сергей_Сергей, s_s, vk, az

_________________
[Профиль]  [ЛС] 

Ishtori

Шкипер

Пост 02-Авг-2016 21:18 (спустя 1 год 11 месяцев)

[Q] 

спасибо за раздачу!
[Профиль]  [ЛС] 
Показать сообщения:    
Ответить на тему

Текущее время: Сегодня 02:00

Часовой пояс: GMT + 4



Вы не можете начинать темы
Вы не можете отвечать на сообщения
Вы не можете редактировать свои сообщения
Вы не можете удалять свои сообщения
Вы не можете голосовать в опросах
Вы не можете прикреплять файлы к сообщениям
Вы не можете скачивать файлы

▼ Вниз