ML
     
  Уважаемый Гость!
Вы можете поддержать проект и зарегистрироваться у наших партнеров - онлайн-стратегия MyLands. При регистрации в игре Вы получите код, который сможете активировать после регистрации на pirat.ca и получить 1000 дублонов.

Ваш код:
fe4e93b754a7c2b306fcfc8bc32532ea1cf59d3b
 
     

Сонная лощина / Sleepy Hollow (Сезон: 1 (полный) / Серии: 1-13 из 13) (Пол А. Эдвардс / Paul A. Edwards, Кен Олин / Ken Olin...) [2013 - 2014 гг., Фэнтези, триллер, драма, детектив, приключения, WEB-DL, 720p] (NewStudio (Weirdie)) MVO

Ответить на тему
 
Автор
Сообщение

Пост 03-Фев-2014 12:29

[Q] 

UcrusPazzo

Сонная лощина / Sleepy HollowНе теряй голову -Производство: США, Sketch Films, Kurtzman Orci Paper Products, 20th Century Fox Television
Жанр: Фэнтези, триллер, драма, детектив, приключения
Год выпуска: 2013-2014 гг.
Продолжительность: 13 серий по ~00:41:45
Мировая премьера: 16 сентября 2013
Перевод: Профессиональный (многоголосый, закадровый) [NewStudio]
Автор перевода: Weirdie
Оригинальный аудиопоток: английский-Режиссер: Пол А. Эдвардс / Paul A. Edwards, Кен Олин / Ken Olin, Дуглас Арниокоски / Douglas Aarniokoski
Сценарий: Филлип Айскоув, Алекс Куртцман, Роберто Орси
Продюсер: Марк Гоффман, Филлип Айскоув, Хезер Кадин
Оператор: Артур Альберт, Джон Р. Леонетти, Теодоро Маньячи
Композитор: Брайан Тайлер, Роберт Лидекер
Художник: Денни Дюгалли, Алек Хэммонд, Уильям Дж. Дэвис
Монтаж: Имельда Бетионг, Нил Фелдер, Барбара Герард-В ролях: Том Мисон, Николь Бахари, Орландо Джонс, Катя Винтер, Линди Гринвуд, Джон Чо, Николас Гонзалез, Д.Дж. Миффлин, Клэнси Браун, Ричард Цетрон-Описание: В центре сюжета оказывается военнослужащий Икабод Крейн (Том Мисон), который служил под началом генерала Джорджа Вашингтона во время Войны за независимость. На поле боя в поселении Сонная лощина он получает специальное задание убить человека в маске. Крейн выстрелил в него, но тот даже не пошатнулся. Завязалась жестокая драка, в результате которой Икабод отрубает голову своему противнику, но и сам, будучи раненым, падает в предсмертной агонии. Однако, наш герой не умирает, а таинственным образом переносится на 250 лет вперед и оказывается в современном мире. Очень скоро он попадает в полицейский участок, где своей мистической историей ставит следователей в тупик. Одновременно с этим в городе начинают происходить странные убийства, главным подозреваемым в которых становится тот самый безголовый всадник. Детектив полиции Эбби Миллс (Николь Бехари) хочет поймать убийцу и отомстить ему за смерть напарника. Помочь ей в этом нелегком деле и разгадать тайну своего прыжка во времени собирается главный герой Икабод Крейн.-Качество видео: WEB-DL
Контейнер: MKV
Стандарт разрешения: 720p
Видео кодек: H.264
Аудио кодек: AC3
Видео: ~4016 Кбит/сек; 1280*718 (16:9); в 23,976 кадра/сек; AVC; 0.182 Бит/(Пиксели*Кадры)
Аудио: Русский; 384 Кбит/сек; 48,0 КГц; 16 бит; 6 каналов; АС-3
Аудио #2: Английский; 384 Кбит/сек; 48,0 КГц; 16 бит; 6 каналов; АС-3
Cубтитры: отсутствуют
  • Пилот (Pilot)
  • Кровавая луна (Blood Moon)
  • Зло торжествует (For the Triumph of Evil...)
  • Малый ключ Соломона (The Lesser Key of Solomon)
  • Неизвестный (John Doe)
  • Пожиратель грехов (The Sin Eater)
  • Скачка Ревира (The Midnight Ride)
  • Некромант (Necromancer)
  • Убежище (Sanctuary)
  • Голем (The Golem)
  • Вместилище (The Vessel)
  • Незаменимый человек (Indispensable Man)
  • Дурная кровь (Bad Blood)
Общее
Уникальный идентификатор : 212447793177089353212381392183815739835 (0x9FD3F4E70193B464ACFB77D9DEE299BB)
Формат : Matroska
Версия формата : Version 2
Размер файла : 1,61 Гбайт
Продолжительность : 47 м.
Общий поток : 4881 Кбит/сек
Дата кодирования : UTC 2013-09-17 21:14:43
Программа кодирования : mkvmerge v2.9.9 ('Tutu') built on Nov 25 2009 21:13:32
Библиотека кодирования : libebml v0.7.9 + libmatroska v0.8.1
Видео
Идентификатор : 1
Формат : AVC
Формат/Информация : Advanced Video Codec
Профиль формата : [email protected]
Параметр CABAC формата : Нет
Параметр ReFrames формата : 2 кадра
Идентификатор кодека : V_MPEG4/ISO/AVC
Продолжительность : 47 м.
Битрейт : 4016 Кбит/сек
Ширина : 1280 пикселей
Высота : 718 пикселей
Соотношение сторон : 16:9
Режим частоты кадров : Постоянный
Частота кадров : 23,976 кадра/сек
Цветовое пространство : YUV
Субдискретизация насыщенности : 4:2:0
Битовая глубина : 8 бит
Тип развёртки : Прогрессивная
Бит/(Пиксели*Кадры) : 0.182
Размер потока : 1,32 Гбайт (82%)
Язык : English
Default : Нет
Forced : Нет
Основные цвета : BT.709
Характеристики трансфера : BT.709
Коэффициенты матрицы : BT.709
Аудио #1
Идентификатор : 2
Формат : AC-3
Формат/Информация : Audio Coding 3
Расширение режима : CM (complete main)
Параметр Endianness формата : Big
Идентификатор кодека : A_AC3
Продолжительность : 47 м.
Вид битрейта : Постоянный
Битрейт : 384 Кбит/сек
Каналы : 6 каналов
Расположение каналов : Front: L C R, Side: L R, LFE
Частота : 48,0 КГц
Битовая глубина : 16 бит
Метод сжатия : С потерями
Размер потока : 130 Мбайт (8%)
Язык : Russian
Default : Да
Forced : Да
Аудио #2
Идентификатор : 3
Формат : AC-3
Формат/Информация : Audio Coding 3
Расширение режима : CM (complete main)
Параметр Endianness формата : Big
Идентификатор кодека : A_AC3
Продолжительность : 47 м.
Вид битрейта : Постоянный
Битрейт : 384 Кбит/сек
Каналы : 6 каналов
Расположение каналов : Front: L C R, Side: L R, LFE
Частота : 48,0 КГц
Битовая глубина : 16 бит
Метод сжатия : С потерями
Размер потока : 130 Мбайт (8%)
Язык : English
Default : Нет
Forced : Нет
Сериал "Сонная лощина / Sleepy Hollow" на треке Pirat.ca
Download / Скачать

Хотите скачать бесплатно? Зарегистрируйтесь на сайте (ссылка на регистрацию). Pirat.ca - самый быстрый торрент трекер в рунете!

Как скачивать  ·   Что такое торрент  ·   Рейтинг и ограничения

UcrusPazzo ®

7670

Пост 05-Мар-2015 22:58 (спустя 1 год 1 месяц)

[Q] 

Из-за нехватки места на диске, ушел с раздачи.
Оставил раздачу на группу Seed Aid

_________________
[Профиль]  [ЛС] 
Показать сообщения:    
Ответить на тему

Текущее время: Сегодня 14:29

Часовой пояс: GMT + 4



Вы не можете начинать темы
Вы не можете отвечать на сообщения
Вы не можете редактировать свои сообщения
Вы не можете удалять свои сообщения
Вы не можете голосовать в опросах
Вы не можете прикреплять файлы к сообщениям
Вы не можете скачивать файлы

▼ Вниз