ML
     
  Уважаемый Гость!
Вы можете поддержать проект и зарегистрироваться у наших партнеров - онлайн-стратегия MyLands. При регистрации в игре Вы получите код, который сможете активировать после регистрации на pirat.ca и получить 1000 дублонов.

Ваш код:
a978488e62322cd72e113ab723b8a7fdc10eb9b9
 
     

Флеминг / Fleming (Сезон 1 / полный / 4 серии) (Мат Уайткросс / Mat Whitecross) [2014г., драма, биография, ..., WEB-DLRip] MVO (LostFilm)

Ответить на тему
 
Автор
Сообщение

Пост 04-Фев-2014 07:39

[Q] 

kugesan

Флеминг / Fleming - Русское название: Флеминг
Оригинальное название: Fleming
Страна: Великобритания
Год выпуска: 2014
Жанр: драма, биография, ...-Релиз: LostFilm
Перевод: Профессиональный (многоголосый, закадровый)-Премьера (мир): 29 января 2014-Режиссер: Мат Уайткросс / Mat Whitecross
В главных ролях: Анна Чэнселлор, Доминик Купер, Руперт Эванс, Лесли Мэнвилл, Лара Пулвер, Камилла Разерфорд, Пип Торренс, Сэмюэл Уэст, Ли Асквит-Коу, Дин Леннокс Келли ...-Описание фильма:
Как из прожигателя жизни превратиться в шпиона мирового уровня? Как использовать неуемную тягу к риску на благо страны и для повышения уровня адреналина в своей крови? Об этом нам расскажет новый, стильный и динамичный минисериал совместного производства BBC America и Sky Atlantic.
«Флеминг: человек, который хотел стать Бондом» (Fleming) — это правдивая и завораживающая история об одном из самых загадочных мужчин XX века, чья жизнь и поступки послужили основой для создания легендарного агента 007-Сезон: 1
Серии: 4 из 4 серий
Продолжительность: ~ 00:44:00 мин серия-Качество видео: WEB-DLRip
Формат: AVI
Видеокодек: XviD
Аудиокодек: Mp3
Видео: MPEG-4 Visual at 1414 Кбит/сек: 720 x 400 (1.800) at 25.000 fps, 0.196 Бит/Пиксели
Аудио Rus: MPEG Audio at 192 Кбит/сек: 2 канала, 48,0 КГц |LostFilm|
- -
  • Эпизод 1
  • Эпизод 2
  • Эпизод 3
  • Эпизод 4
-
Код:
Общее
Полное имя                               : E:\_Сериалы\Флеминг человек, который хотел стать Бондом\Fleming The Man Who Would Be Bond-1 (LostFilm)\Fleming.S01E01.rus.LostFilm.TV.avi
Формат                                   : AVI
Формат/Информация                        : Audio Video Interleave
Размер файла                             : 516 Мбайт
Продолжительность                        : 44 м.
Режим общего битрейта                    : Переменный
Общий поток                              : 1614 Кбит/сек
Программа кодирования                    : Nandub v1.0rc2
Библиотека кодирования                   : Nandub build 1853/release
Видео
Идентификатор                            : 0
Формат                                   : MPEG-4 Visual
Профиль формата                          : [email protected]
Параметр BVOP формата                    : Нет
Параметр QPel формата                    : Нет
Параметр GMC формата                     : Без точки перехода
Параметр матрицы формата                 : Default (H.263)
Идентификатор кодека                     : XVID
Идентификатор кодека/Подсказка           : XviD
Продолжительность                        : 44 м.
Битрейт                                  : 1414 Кбит/сек
Ширина                                   : 720 пикселей
Высота                                   : 400 пикселей
Соотношение сторон                       : 16:9
Частота кадров                           : 25,000 кадров/сек
Цветовое пространство                    : YUV
Субдискретизация насыщенности            : 4:2:0
Битовая глубина                          : 8 бит
Тип развёртки                            : Прогрессивная
Метод сжатия                             : С потерями
Бит/(Пиксели*Кадры)                      : 0.196
Размер потока                            : 452 Мбайт (88%)
Библиотека кодирования                   : XviD 1.2.1 (UTC 2008-12-04)
Аудио
Идентификатор                            : 1
Формат                                   : MPEG Audio
Версия формата                           : Version 1
Профиль формата                          : Layer 3
Режим                                    : Joint stereo
Расширение режима                        : MS Stereo
Идентификатор кодека                     : 55
Идентификатор кодека/Подсказка           : MP3
Продолжительность                        : 44 м.
Вид битрейта                             : Переменный
Битрейт                                  : 192 Кбит/сек
Каналы                                   : 2 канала
Частота                                  : 48,0 КГц
Метод сжатия                             : С потерями
Размер потока                            : 59,8 Мбайт (12%)
Выравнивание                             : Соединение по промежуткам
Продолжительность промежутка             : 24  мс. (0,60 видеокадр)
Время предзагрузки промежутка            : 500  мс.
Библиотека кодирования                   : LAME3.97b
Настройки программы                      : -m j -V 4 -q 3 -lowpass 18.6 --abr 192
-
-Скриншоты:
--Добавлена четвертая, заключительная, серия первого сезона
Download / Скачать

Хотите скачать бесплатно? Зарегистрируйтесь на сайте (ссылка на регистрацию). Pirat.ca - самый быстрый торрент трекер в рунете!

Как скачивать  ·   Что такое торрент  ·   Рейтинг и ограничения



Последний раз редактировалось: kugesan (2014-02-25 19:01), всего редактировалось 4 раз(а)

kugesan ®

56686

Пост 24-Фев-2014 20:45 (спустя 20 дней)

[Q] 

Добавлена четвертая, заключительная, серия первого сезона

_________________

В мире две бесконечности: вселенная и человеческая глупость - Альберт Эйнштен
«Можно вытащить человека из грязи, но нельзя вытащить грязь из человека»!
[Профиль]  [ЛС] 
Показать сообщения:    
Ответить на тему

Текущее время: Сегодня 22:10

Часовой пояс: GMT + 4



Вы не можете начинать темы
Вы не можете отвечать на сообщения
Вы не можете редактировать свои сообщения
Вы не можете удалять свои сообщения
Вы не можете голосовать в опросах
Вы не можете прикреплять файлы к сообщениям
Вы не можете скачивать файлы

▼ Вниз