ML
     
  Уважаемый Гость!
Вы можете поддержать проект и зарегистрироваться у наших партнеров - онлайн-стратегия MyLands. При регистрации в игре Вы получите код, который сможете активировать после регистрации на pirat.ca и получить 1000 дублонов.

Ваш код:
ba41f7961e0b4717aed6a401d955262223b8f6c4
 
     

Ходячие мертвецы / The Walking Dead / Сезон: 2 / Серии: 1-13 из 13 (Эрнест Р. Дикерсон, Гвинет Хордер-Пэйтон / Ernest R. Dickerson, Gwyneth Horder-Payton) [2011 г., драма, триллер, ужасы, BDRip, 720p] 2xMVO [LostFilm, FoxCrime] + DVO [Кубик в Кубе] +

Ответить на тему
 
Автор
Сообщение

Пост 08-Фев-2014 14:50

[Q] 

TERMOS

Легенда

-Ходячие мертвецы / The Walking Dead
(2 сезон)
-- Производство: США | Circle of Confusion, Valhalla Motion Pictures, Darkwoods Productions
Жанр: драма, триллер, ужасы
Год выпуска: 2011 г.
Продолжительность серии : ~00:43:00
Перевод: Профессиональный (многоголосый, закадровый) [LostFilm]
Перевод 2: Профессиональный (двухголосый, закадровый) [Кубик в Кубе]
Перевод 3: Профессиональный (многоголосый, закадровый) [FoxCrime]
Оригинальный аудиопоток: английский
Режиссер: Эрнест Р. Дикерсон, Гвинет Хордер-Пэйтон / Ernest R. Dickerson, Gwyneth Horder-Payton-В ролях: Эндрю Линкольн, Лори Холден, Стивен Юн, Чендлер Риггз, Норман Ридус, Мелисса Сюзанн МакБрайд, Лорен Коэн, Сара Уэйн Кэллис, Скотт Уилсон, Эмили Кинни-Описание: Сериал рассказывает историю жизни семьи шерифа после того, как «зомби» - эпидемия апокалипсических масштабов захлестнула земной шар. Шериф Рик Грайм путешествует со своей семьей и небольшой группой выживших в поисках безопасного места для жизни. Но постоянный страх смерти каждый день приносит тяжелые потери, заставляя героев почувствовать глубины человеческой жестокости. Рик пытается спасти свою семью, и открывает для себя, что всепоглощающий страх тех, кто выжил, может быть опаснее бессмысленных мертвецов, бродящих по земле.
- -Качество видео: BDRip
Контейнер: MKV
Стандарт разрешения: 720p
Видео кодек: H.264/AVC
Аудио кодек: DTS, AC3
Видео: 1280x720, 23.976 fps, ~9000 kbps avg
Аудио: (Rus) 48 kHz, DTS, 3/2 (L,C,R,l,r) + LFE ch, ~1536 kbps avg - "LostFilm"
Аудио #2: (Rus) 48 kHz, DTS, 3/2 (L,C,R,l,r) + LFE ch, ~1536 kbps avg - "Кубик в Кубе"
Аудио #3: (Rus) 48 kHz, DTS, 3/2 (L,C,R,l,r) + LFE ch, ~1536 kbps avg - "FoxCrime"
Аудио #4: (Eng) 48 kHz, AC3, 3/2 (L,C,R,l,r) + LFE ch, ~640 kbps avg
Cубтитры: русские (Forced), русские (Full), английские
Episode 01: What Lies Ahead / Что ждет впереди
Episode 02: Bloodletting / Кровопускание
Episode 03: Save The Last One / До последнего
Episode 04: Cherokee Rose / Роза Черокки
Episode 05: Chupacabra / Чупакабра
Episode 06: Secrets / Секреты
Episode 07: Pretty Much Dead Already / Уже почти мертв
Episode 08: Nebraska / Небраска
Episode 09: Triggerfinger / Палец на курке
Episode 10: 18 Miles Out / 18 миль
Episode 11: Judge, Jury, Executioner / Судья, присяжные, палач
Episode 12: Better Angels / Лучшие ангелы
Episode 13: Beside the Dying Fire / Возле угасающего костра
Код:
General
Complete name                    : U:\Uploads\Pirat.Ca\The Walking Dead - Season 2 (2011)[720p.BDRip]\The Walking Dead.S02E01.720p.BDRip.3xRus.Eng.mkv
Format                           : Matroska
File size                        : 6.68 GiB
Duration                         : 1h 2mn
Overall bit rate                 : 15.2 Mbps
Encoded date                     : UTC 2013-01-25 22:26:03
Writing application              : mkvmerge v4.2.0 ('No Talking') сборка от Jul 28 2010 18:38:23
Writing library                  : libebml v1.0.0 + libmatroska v1.0.0
Video
ID                               : 1
Format                           : AVC
Format/Info                      : Advanced Video Codec
Format profile                   : [email protected]
Format settings, CABAC           : Yes
Format settings, ReFrames        : 9 frames
Muxing mode                      : Container [email protected]
Codec ID                         : V_MPEG4/ISO/AVC
Duration                         : 1h 2mn
Bit rate                         : 9 757 Kbps
Width                            : 1 280 pixels
Height                           : 720 pixels
Display aspect ratio             : 16:9
Frame rate                       : 23.976 fps
Color space                      : YUV
Chroma subsampling               : 4:2:0
Bit depth                        : 8 bits
Scan type                        : Progressive
Bits/(Pixel*Frame)               : 0.442
Stream size                      : 4.28 GiB (64%)
Writing library                  : x264 core 116 r2057 0ba8a9c
Encoding settings                : cabac=1 / ref=9 / deblock=1:-3:-3 / analyse=0x3:0x133 / me=umh / subme=10 / psy=1 / psy_rd=1.00:0.00 / mixed_ref=1 / me_range=32 / chroma_me=1 / trellis=2 / 8x8dct=1 / cqm=0 / deadzone=21,11 / fast_pskip=0 / chroma_qp_offset=-2 / threads=16 / sliced_threads=0 / nr=0 / decimate=0 / interlaced=0 / bluray_compat=0 / constrained_intra=0 / bframes=7 / b_pyramid=2 / b_adapt=2 / b_bias=0 / direct=3 / weightb=1 / open_gop=0 / weightp=2 / keyint=250 / keyint_min=23 / scenecut=40 / intra_refresh=0 / rc_lookahead=40 / rc=crf / mbtree=0 / crf=18.0 / qcomp=0.65 / qpmin=0 / qpmax=40 / qpstep=4 / vbv_maxrate=50000 / vbv_bufsize=50000 / crf_max=0.0 / nal_hrd=none / ip_ratio=1.25 / pb_ratio=1.25 / aq=1:0.65
Language                         : English
Audio #1
ID                               : 2
Format                           : DTS
Format/Info                      : Digital Theater Systems
Codec ID                         : A_DTS
Duration                         : 1h 2mn
Bit rate mode                    : Constant
Bit rate                         : 1 510 Kbps
Channel(s)                       : 6 channels
Channel positions                : Front: L C R, Side: L R, LFE
Sampling rate                    : 48.0 KHz
Bit depth                        : 24 bits
Video delay                      : 11ms
Stream size                      : 678 MiB (10%)
Title                            : DTS 5.1 1536 kbps - Многоголосый закадровый, LostFilmTV
Language                         : Russian
Audio #2
ID                               : 3
Format                           : DTS
Format/Info                      : Digital Theater Systems
Codec ID                         : A_DTS
Duration                         : 1h 2mn
Bit rate mode                    : Constant
Bit rate                         : 1 510 Kbps
Channel(s)                       : 6 channels
Channel positions                : Front: L C R, Side: L R, LFE
Sampling rate                    : 48.0 KHz
Bit depth                        : 24 bits
Video delay                      : 11ms
Stream size                      : 678 MiB (10%)
Title                            : DTS 5.1 1536 kbps - Двухголосый закадровый, Кубик в Кубе
Language                         : Russian
Audio #3
ID                               : 4
Format                           : DTS
Format/Info                      : Digital Theater Systems
Codec ID                         : A_DTS
Duration                         : 1h 2mn
Bit rate mode                    : Constant
Bit rate                         : 1 510 Kbps
Channel(s)                       : 6 channels
Channel positions                : Front: L C R, Side: L R, LFE
Sampling rate                    : 48.0 KHz
Bit depth                        : 24 bits
Video delay                      : 11ms
Stream size                      : 678 MiB (10%)
Title                            : DTS 5.1 1536 kbps - Многоголосый закадровый, FoxCrime
Language                         : Russian
Audio #4
ID                               : 5
Format                           : AC-3
Format/Info                      : Audio Coding 3
Mode extension                   : CM (complete main)
Codec ID                         : A_AC3
Duration                         : 1h 2mn
Bit rate mode                    : Constant
Bit rate                         : 640 Kbps
Channel(s)                       : 6 channels
Channel positions                : Front: L C R, Side: L R, LFE
Sampling rate                    : 48.0 KHz
Bit depth                        : 16 bits
Stream size                      : 288 MiB (4%)
Title                            : AC3 5.1 640 kbps
Language                         : English
Text #1
ID                               : 6
Format                           : UTF-8
Codec ID                         : S_TEXT/UTF8
Codec ID/Info                    : UTF-8 Plain Text
Language                         : Russian
Text #2
ID                               : 7
Format                           : UTF-8
Codec ID                         : S_TEXT/UTF8
Codec ID/Info                    : UTF-8 Plain Text
Title                            : forced
Language                         : Russian
Text #3
ID                               : 8
Format                           : UTF-8
Codec ID                         : S_TEXT/UTF8
Codec ID/Info                    : UTF-8 Plain Text
Language                         : English
Menu
00:00:00.000                     : en:00:00:00.000
00:04:59.925                     : en:00:04:59.925
00:13:11.791                     : en:00:13:11.791
00:26:58.617                     : en:00:26:58.617
00:36:45.578                     : en:00:36:45.578
00:49:39.977                     : en:00:49:39.977
Download / Скачать

Хотите скачать бесплатно? Зарегистрируйтесь на сайте (ссылка на регистрацию). Pirat.ca - самый быстрый торрент трекер в рунете!

Как скачивать  ·   Что такое торрент  ·   Рейтинг и ограничения

Пост 08-Фев-2014 15:10 (спустя 19 минут)

Топик был перенесен из форума Зарубежные сериалы (Трюм) в форум Зарубежные сериалы
kugesan
 

TERMOS ®

Легенда

12063

Пост 13-Фев-2014 15:06 (спустя 5 дней)

[Q] 

Прошу извинить за низкую скорость - повреждён кабель. В понедельник должны заменить.

_________________
[Профиль]  [ЛС] 
Показать сообщения:    
Ответить на тему

Текущее время: Сегодня 14:50

Часовой пояс: GMT + 4



Вы не можете начинать темы
Вы не можете отвечать на сообщения
Вы не можете редактировать свои сообщения
Вы не можете удалять свои сообщения
Вы не можете голосовать в опросах
Вы не можете прикреплять файлы к сообщениям
Вы не можете скачивать файлы

▼ Вниз