ML
     
  Уважаемый Гость!
Вы можете поддержать проект и зарегистрироваться у наших партнеров - онлайн-стратегия MyLands. При регистрации в игре Вы получите код, который сможете активировать после регистрации на pirat.ca и получить 1000 дублонов.

Ваш код:
c3360d664ceb84802c84b88ed062a5d134e2ba97
 
     

Секс, наркотики и рок-н-ролл / Sex&Drugs&Rock&Roll / Сезон: 1 / Серии: 10 из 10 (Майкл Блиден / Michael Blieden) [2015 г., комедия, HDTVRip] MVO (NewStudio) + Original (Eng) [Финал Сезона]

Ответить на тему
 
Автор
Сообщение

Пост 09-Фев-2014 13:25

[Q] 

kugesan

-Секс, наркотики и рок-н-ролл
Sex&Drugs&Rock&Roll
-- Производство: США
Жанр: комедия
Год выпуска: 2015 г.-Премьера (мир): 16 июля 2015-Озвучка: Студия |NewStudio|
Перевод: Многоголосый закадровый, профессиональный
Оригинальный аудиопоток: английский-Автор перевода: Юля Мейер
Постер: Vortex-Режиссер: Майкл Блиден / Michael Blieden, Дэнис Лири / Denis Leary-В ролях: Дэнис Лири, Джон Корбетт, Элизабет Гиллис, Элэйн Хендрикс, Роберт Келли, Джон Алес, Джош Пэйс, Кейт Ходж, Грег Дулли, Дэйв Грол, ...-Описание:
Сериал «Секс, наркотики и рок-н-ролл» производства FX Productions расскажет о печальной судьбе нью-йоркской группы The Heathens и ее вокалиста Джонни Рока. В 90-ых коллектив пользовался бешеной популярностью, но из-за глупости The Heathens умудрились распасться за шаг до мирового признания.
Через 25 лет Джонни получает шанс вернуться в шоу-бизнес со своей группой, пусть и будучи «за кадром». Молодая певица Гиги предлагает ему воскресить коллектив, но при условии, что место единственной вокалистки займет она. Главную роль в комедийном сериале исполнил Дэнис Лири.-Сезон: 1
Серии: 10 из 10 серий
Продолжительность: ~ 00:31:00 мин серия-Качество видео: HDTVRip
Контейнер: AVI
Видео кодек: XviD
Аудио кодек: MP3
Видео: MPEG-4 Visual at 1633 Кбит/сек: 720 x 400 (1.800) at 23.976 fps: 0.24 Бит/Пиксели
Аудио Rus: MPEG Audio at 128 Кбит/сек: 2 канала, 48,0 КГц |NewStudio|
Аудио Eng: MPEG Audio at 128 Кбит/сек: 2 канала, 48,0 КГц |Original|
Cубтитры: отсутствуют- -
  • Не хочу умирать (Don't Wanna Die Anonymous)
  • Трезвый папаша (Clean Rockin' Daddy)
  • Страсть к жизни (Lust for Life)
  • Всё, что хочешь, - в лимузине (What You Like Is in the Limo)
  • Доктор-доктор (Doctor Doctor)
  • Татуировка (Tattoo You)
  • Суперкалиохрениджулительно (Supercalifragilisticjuliefrigging)
  • Тяжко быть сутенером (Hard Out Here for a Pimp)
  • Сфотографируй меня у бассейна (Take My Picture By The Pool)
  • Нас рать (Because We're Legion)
-
Общее
Полное имя : E:\_Сериалы\_Сериалы\NewStudio\Sex&Drugs&Rock&Roll.s01.WEBDLRip.NewStudio.TV\Sex&Drugs&Rock&Roll.s01e01.WEBDLRip.NewStudio.TV.avi
Формат : AVI
Формат/Информация : Audio Video Interleave
Размер файла : 350 Мбайт
Продолжительность : 25 м.
Общий поток : 1903 Кбит/сек
Программа кодирования : VirtualDubMod 1.5.10.2 (build 2540/release)
Библиотека кодирования : VirtualDubMod build 2540/release
Видео
Идентификатор : 0
Формат : MPEG-4 Visual
Профиль формата : Advanced [email protected]
Параметр BVOP формата : 2
Параметр QPel формата : Нет
Параметр GMC формата : Без точки перехода
Параметр матрицы формата : Default (MPEG)
Идентификатор кодека : XVID
Идентификатор кодека/Подсказка : XviD
Продолжительность : 25 м.
Битрейт : 1633 Кбит/сек
Ширина : 720 пикселей
Высота : 400 пикселей
Соотношение сторон : 16:9
Частота кадров : 23,976 кадра/сек
Цветовое пространство : YUV
Субдискретизация насыщенности : 4:2:0
Битовая глубина : 8 бит
Тип развёртки : Прогрессивная
Метод сжатия : С потерями
Бит/(Пиксели*Кадры) : 0.236
Размер потока : 300 Мбайт (86%)
Библиотека кодирования : XviD 73
Аудио #1
Идентификатор : 1
Формат : MPEG Audio
Версия формата : Version 1
Профиль формата : Layer 3
Режим : Joint stereo
Расширение режима : MS Stereo
Идентификатор кодека : 55
Идентификатор кодека/Подсказка : MP3
Продолжительность : 25 м.
Вид битрейта : Постоянный
Битрейт : 128 Кбит/сек
Каналы : 2 канала
Частота : 48,0 КГц
Метод сжатия : С потерями
Размер потока : 23,5 Мбайт (7%)
Выравнивание : Соединение по промежуткам
Продолжительность промежутка : 42 мс. (1,00 видеокадр)
Время предзагрузки промежутка : 504 мс.
Аудио #2
Идентификатор : 2
Формат : MPEG Audio
Версия формата : Version 1
Профиль формата : Layer 3
Режим : Joint stereo
Идентификатор кодека : 55
Идентификатор кодека/Подсказка : MP3
Продолжительность : 25 м.
Вид битрейта : Постоянный
Битрейт : 128 Кбит/сек
Каналы : 2 канала
Частота : 48,0 КГц
Метод сжатия : С потерями
Размер потока : 23,5 Мбайт (7%)
Выравнивание : Соединение по промежуткам
Продолжительность промежутка : 42 мс. (1,00 видеокадр)
Время предзагрузки промежутка : 504 мс.
Библиотека кодирования : LAME3.99r
Настройки программы : -m j -V 4 -q 2 -lowpass 17 -b 128
-
-Скриншоты:
-
-
Раздача ведётся путём добавления новых серий; при каждом добавлении создаётся новый торрент.
Чтобы начать докачку новой серии, пользователям необходимо сделать следующее:
1. остановить скачивание,
2. удалить старый торрент у себя из клиента (старые серии удалять не надо),
3. скачать новый торрент и запустить его у себя в клиенте вместо старого, при этом указать клиенту путь в старую папку, куда и должно происходить скачивание новых серий.
Ваш клиент при этом должен произвести хеширование (проверку) старой папки (если не производит сам - помогите ему сделать это), и будет докачивать только те серии которых у вас ещё нет. Старые серии при этом не удаляются, а продолжают раздаваться!
Eсли вы уже удалили старые серии, то предотвратить повторную закачку старых серий можно, отжав галочку в соответствующих местах при запуске нового торрента. По возможности, желательно не удалять старые серии как можно дольше, чтобы релизёр не столько продолжал раздавать старые серии, а смог сконцентрироваться на новых.
Совет для тех, кто не хочет ждать перехеширования:
Создайте ещё одну папку рядом с папкой сериала (рядом, а не в ней!!!). Каждую новую серию после удачной загрузки копируйте в новую папку так чтобы ваша основная папка всегда была пуста. Когда ваш новый торрент предложит вам закачать все файлы, выберете только последнюю. Для сидирования же укажите адрес новой папки.
Как закачать отдельный файл из торрента или докачать ранее пропущенные файлы торрента!
-
1. Открыть торрент
2. Снять галки с тех файлов торрента, которые мы не хотим закачивать. Оставляем только на нужных нам файлах (файле).
3. Нажать О.К.
В клиенте utorrent
Инструкция
1) Открыть торрент

2) Снять галки с тех файлов торрента, которые мы не хотим закачивать:
* либо вручную, снимая с каждого файла галку( скрин №1)
* либо, нажав кнопку "Снять метки (Select None)", сняв сразу со всех файлов(скрин №2)
№1

№2

Оставляем только на нужных нам файлах (файле).

3)Нажать О.К
Добавлена десятая, заключительная, серия первого сезона
Download / Скачать

Хотите скачать бесплатно? Зарегистрируйтесь на сайте (ссылка на регистрацию). Pirat.ca - самый быстрый торрент трекер в рунете!

Как скачивать  ·   Что такое торрент  ·   Рейтинг и ограничения



Последний раз редактировалось: kugesan (2015-09-19 19:47), всего редактировалось 25 раз(а)

zvezda_2s

Корсар

Пост 04-Авг-2015 12:51 (спустя 1 год 5 месяцев)

[Q] 

Сомнения в пригодности к просмотру...
[Профиль]  [ЛС] 

kugesan ®

56720

Пост 19-Сен-2015 19:48 (спустя 1 месяц 15 дней)

[Q] 

Добавлена десятая, заключительная, серия первого сезона

_________________

В мире две бесконечности: вселенная и человеческая глупость - Альберт Эйнштен
«Можно вытащить человека из грязи, но нельзя вытащить грязь из человека»!
[Профиль]  [ЛС] 

a_barat

Гроза морей

3249

Пост 19-Сен-2015 23:12 (спустя 3 часа)

[Q] 

Отлично, бро!!!
Респект и рома бачёнаг )))
Всем качать!!! Автору респект!!!

_________________
This message represents an official view of the voices in my head af
[Профиль]  [ЛС] 

kugesan ®

56720

Пост 19-Сен-2015 23:25 (спустя 13 минут)

[Q] 

Приятного просмотра!!!

_________________

В мире две бесконечности: вселенная и человеческая глупость - Альберт Эйнштен
«Можно вытащить человека из грязи, но нельзя вытащить грязь из человека»!
[Профиль]  [ЛС] 

Пост 21-Сен-2015 01:54 (спустя 1 день 2 часа)

Топик был перенесен из форума Сериалы в эфире в форум Зарубежные сериалы
Андря
 

a_barat

Гроза морей

3249

Пост 26-Сен-2015 11:49 (спустя 6 дней)

[Q] 

Ворой раз пересматриваю. Ностальгия по тому, чего у меня никогда не было в достатке в одном месте в одно время )))

_________________
This message represents an official view of the voices in my head af
[Профиль]  [ЛС] 
Показать сообщения:    
Ответить на тему

Текущее время: Сегодня 10:06

Часовой пояс: GMT + 4



Вы не можете начинать темы
Вы не можете отвечать на сообщения
Вы не можете редактировать свои сообщения
Вы не можете удалять свои сообщения
Вы не можете голосовать в опросах
Вы не можете прикреплять файлы к сообщениям
Вы не можете скачивать файлы

▼ Вниз