ML
     
  Уважаемый Гость!
Вы можете поддержать проект и зарегистрироваться у наших партнеров - онлайн-стратегия MyLands. При регистрации в игре Вы получите код, который сможете активировать после регистрации на pirat.ca и получить 1000 дублонов.

Ваш код:
5af7de75d3db09b6a37bc8bab71b0e87ccde73d6
 
     

Библия / The Bible / Сезон: 1 / Серии: 1-10 (Криспин Рис / Crispin Reece, Тони Митчелл / Tony Mitchell, Кристофер Спенсер / Christopher Spencer) [2013 г., драма, боевик, исторический, WEB-DL] Dub (ТВ3)

Ответить на тему
 
Автор
Сообщение

Пост 13-Фев-2014 19:21

[Q] 

LPPI

-Библия / The Bible-- Производство: США, Великобритания
Жанр: драма, боевик, исторический
Год выпуска: 2013 г.
Продолжительность: 10 x ~ 00:43:00
Мировая премьера: 3 марта 2013
Перевод: Профессиональный (полное дублирование) [ТВ3]
Режиссер: Криспин Рис / Crispin Reece, Тони Митчелл / Tony Mitchell, Кристофер Спенсер / Christopher Spencer
В ролях: Кит Дэвид, Диого Моргадо, Дауд Шах, Пол Брайтвелл, Рома Дауни, Грег Хикс, Себастьян Кнапп, Эмбер Роуз Рева, Адриан Шиллер-Описание:-Самая масштабная экранизация библейских сюжетов, как утверждают авторы, снята в духе современных исторических сериалов c добавлением к живым сценам компьютерной графики. Истории о Ноевом ковчеге, исходе из Египта под предводительством Моисея, рождении, смерти и воскресении Иисуса. Сериал состоит из 10 ключевых повествований. Начиная от книги Бытие и заканчивая книгой Откровение. Воссоздать и снять истории Ветхого и Нового заветов решился 43-летний британский продюсер Марк Барнетт с супругой. Съемки стоимостью в 22 миллиона долларов прошли на Ближнем Востоке и собрали актеров со всего мира (Самсон из африканской диаспоры, Давид из Ирландии, Иисус из Португалии, и т.д.). В качестве консультантов были привлечены десятки пасторов и ученых.- -Качество видео: WEB-DL
Контейнер: AVI
Видео кодек: XviD
Аудио кодек: MP3
Видео: AVI, XviD, 720x400, 1238 kbps, 0.17 bit/pixel, 25 fps
Аудио: Русский; mp3, 128.00 kbps, 2 ch, 48 kHz
Cубтитры: отсутствуют
Формат : AVI
Формат/Информация : Audio Video Interleave
Размер файла : 448 Мбайт
Продолжительность : 45 м.
Общий поток : 1376 Кбит/сек
Программа кодирования : VirtualDubMod 1.5.10.2 (build 2540/release)
Библиотека кодирования : VirtualDubMod build 2540/release
Видео
Идентификатор : 0
Формат : MPEG-4 Visual
Профиль формата : Advanced [email protected]
Параметр BVOP формата : 1
Параметр QPel формата : Нет
Параметр GMC формата : Без точки перехода
Параметр матрицы формата : Default (MPEG)
Идентификатор кодека : XVID
Идентификатор кодека/Подсказка : XviD
Продолжительность : 45 м.
Битрейт : 1238 Кбит/сек
Ширина : 720 пикселей
Высота : 400 пикселей
Соотношение сторон : 16:9
Частота кадров : 25,000 кадров/сек
Цветовое пространство : YUV
Субдискретизация насыщенности : 4:2:0
Битовая глубина : 8 бит
Тип развёртки : Прогрессивная
Метод сжатия : С потерями
Бит/(Пиксели*Кадры) : 0.172
Размер потока : 403 Мбайт (90%)
Библиотека кодирования : XviD 57
Аудио
Идентификатор : 1
Формат : MPEG Audio
Версия формата : Version 1
Профиль формата : Layer 3
Режим : Joint stereo
Расширение режима : MS Stereo
Идентификатор кодека : 55
Идентификатор кодека/Подсказка : MP3
Продолжительность : 45 м.
Вид битрейта : Постоянный
Битрейт : 128 Кбит/сек
Каналы : 2 канала
Частота : 48,0 КГц
Метод сжатия : С потерями
Размер потока : 41,7 Мбайт (9%)
Выравнивание : Соединение по промежуткам
Продолжительность промежутка : 40 мс. (1,00 видеокадр)
Время предзагрузки промежутка : 504 мс.
1. In the Beginning / В Начале
2. Exodus / Исход
3. Homeland / Земля Обетованная
4. Kingdom / Царство
5. Survival / Выживание
6. Hope / Надежда
7. Mission / Миссия
8. Betrayal / Предательство
9. Passion / Страсть
10. Courage / Мужество
Download / Скачать

Хотите скачать бесплатно? Зарегистрируйтесь на сайте (ссылка на регистрацию). Pirat.ca - самый быстрый торрент трекер в рунете!

Как скачивать  ·   Что такое торрент  ·   Рейтинг и ограничения

ADiaboli-1981

Лоцман

Пост 14-Фев-2014 12:40 (спустя 17 часов)

[Q] 

Спасибо. Посмотрим...
[Профиль]  [ЛС] 

янка-сан

Гроза морей

Пост 18-Дек-2015 20:10 (спустя 1 год 10 месяцев)

[Q] 

спасибо Лови бочку
[Профиль]  [ЛС] 
Показать сообщения:    
Ответить на тему

Текущее время: Сегодня 14:08

Часовой пояс: GMT + 4



Вы не можете начинать темы
Вы не можете отвечать на сообщения
Вы не можете редактировать свои сообщения
Вы не можете удалять свои сообщения
Вы не можете голосовать в опросах
Вы не можете прикреплять файлы к сообщениям
Вы не можете скачивать файлы

▼ Вниз