ML
     
  Уважаемый Гость!
Вы можете поддержать проект и зарегистрироваться у наших партнеров - онлайн-стратегия MyLands. При регистрации в игре Вы получите код, который сможете активировать после регистрации на pirat.ca и получить 1000 дублонов.

Ваш код:
ea554e7ed3eacceeae87a8b30a9de3f086c18a84
 
     

Клондайк / Klondike / Сезон: 1 / Серии: 6(Саймон Селлан Джоунс / Simon Cellan Jones) [2014 г., драма, WEB-DLRip] DVO (Paradox)

Ответить на тему
 
Автор
Сообщение

Пост 17-Фев-2014 22:58

[Q] 

kloctuk

-Клондайк / Klondike-- Производство: США, Канада
Жанр: драма
Год выпуска: 2014 г.
Продолжительность: ~ 00:48
Мировая премьера: 20 января 2014
Российская премьера: 6 марта 2014
Перевод: Любительский (двухголосый, закадровый) [ Paradox]
Режиссер: Саймон Селлан Джоунс / Simon Cellan Jones-В ролях: Тим Рот, Сэм Шепард, Эбби Корниш, Джонни Симмонс, Иэн Харт, Ричард Мэдден, Конор Лесли, Тим Блейк Нельсон, Август Прю, Грег Лосон ...-Описание: В центре сюжета — история шестерых золотоискателей, которые встречаются в долине реки Юкон во времена Золотой лихорадки. Им предстоит выжить в суровых северных краях, куда отправлялись самые отчаянные авантюристы.-
Качество видео: WEB-DLRip
Контейнер: AVI
Видео кодек: XviD
Аудио кодек: MP3
Видео: ~ 1850 kbps, 720x400, 23,976 fps, Bits/Pixel: 0.268
Аудио: AC3, 48.0 KHz, 2 ch, 192 kbps
Cубтитры: отсутствуют
General
Complete name : N:\фильмы\Klondike.(s01).Paradox\Klondike.2014.S01E01.Paradox.WEBDLRip.avi
Format : AVI
Format/Info : Audio Video Interleave
File size : 702 MiB
Duration : 47mn 52s
Overall bit rate : 2 051 Kbps
Writing application : VirtualDubMod 1.5.10.2 (build 2540/release)
Writing library : VirtualDubMod build 2540/release
Video
ID : 0
Format : MPEG-4 Visual
Format profile : Advanced [email protected]
Format settings, BVOP : 1
Format settings, QPel : No
Format settings, GMC : No warppoints
Format settings, Matrix : Default (H.263)
Codec ID : XVID
Codec ID/Hint : XviD
Duration : 47mn 52s
Bit rate : 1 850 Kbps
Width : 720 pixels
Height : 400 pixels
Display aspect ratio : 16:9
Frame rate : 23.976 fps
Color space : YUV
Chroma subsampling : 4:2:0
Bit depth : 8 bits
Scan type : Progressive
Compression mode : Lossy
Bits/(Pixel*Frame) : 0.268
Stream size : 633 MiB (90%)
Writing library : XviD 1.2.1 (UTC 2008-12-04)
Audio
ID : 1
Format : AC-3
Format/Info : Audio Coding 3
Mode extension : CM (complete main)
Format settings, Endianness : Big
Codec ID : 2000
Duration : 47mn 52s
Bit rate mode : Constant
Bit rate : 192 Kbps
Channel count : 2 channels
Channel positions : Front: L R
Sampling rate : 48.0 KHz
Bit depth : 16 bits
Compression mode : Lossy
Stream size : 65.8 MiB (9%)
Alignment : Split accross interleaves
Interleave, duration : 42 ms (1.00 video frame)
Interleave, preload duration : 500 ms
Сезон ВСЕ. Ждем продолжения...
Download / Скачать

Хотите скачать бесплатно? Зарегистрируйтесь на сайте (ссылка на регистрацию). Pirat.ca - самый быстрый торрент трекер в рунете!

Как скачивать  ·   Что такое торрент  ·   Рейтинг и ограничения



Последний раз редактировалось: kloctuk (2014-03-04 21:29), всего редактировалось 1 раз

Пост 18-Фев-2014 17:50 (спустя 18 часов)

Топик был перенесен из форума Зарубежные сериалы (Трюм) в форум Сериалы в эфире
kugesan
 

Hombre250

Морской Волк

Пост 18-Фев-2014 19:52 (спустя 20 часов)

[Q] 

весьма любопытно, беру, спасибо за труды
[Профиль]  [ЛС] 

kloctuk ®

3304

Пост 04-Мар-2014 11:40 (спустя 13 дней)

[Q] 

Последняя серия - вечером...

_________________
-выстрели еще разок. -зачем? - его душа еще танцует...
[Профиль]  [ЛС] 

Region-89

Гроза морей

550

Пост 04-Мар-2014 22:22 (спустя 10 часов)

[Q] 

я от алексфильм смотрел его. в этой озвучке даже 1-ю серию не осилил.

_________________
[Профиль]  [ЛС] 

Пост 04-Мар-2014 22:29 (спустя 6 минут)

Топик был перенесен из форума Сериалы в эфире в форум Зарубежные сериалы
kugesan
 
Показать сообщения:    
Ответить на тему

Текущее время: Сегодня 12:11

Часовой пояс: GMT + 4



Вы не можете начинать темы
Вы не можете отвечать на сообщения
Вы не можете редактировать свои сообщения
Вы не можете удалять свои сообщения
Вы не можете голосовать в опросах
Вы не можете прикреплять файлы к сообщениям
Вы не можете скачивать файлы

▼ Вниз