ML
     
  Уважаемый Гость!
Вы можете поддержать проект и зарегистрироваться у наших партнеров - онлайн-стратегия MyLands. При регистрации в игре Вы получите код, который сможете активировать после регистрации на pirat.ca и получить 1000 дублонов.

Ваш код:
ea554e7ed3eacceeae87a8b30a9de3f086c18a84
 
     

Настоящий детектив / True Detective (Сезон 1 / полный / 8 серий) (Кэри Фукунага / Cary Fukunaga) [2014г., драма, криминал, ..., HDTVRip] DVO (Кубик в Кубе) + Original (Eng)

Ответить на тему
 
Автор
Сообщение

Пост 27-Фев-2014 15:41

[Q] 

kugesan

Настоящий детектив / True Detective
«Man is the cruelest animal»
- Русское название: Настоящий детектив
Оригинальное название: True Detective
Страна: США
Год выпуска: 2014
Жанр: драма, криминал, ...-Релиз: Студия
Перевод: Двухголосый закадровый, профессиональный
Оригинальный аудиопоток: английский-Премьера (мир): 12 января 2014, ...
премьера (РФ): 13 января 2014
Релиз на DVD: 12 июня 2014, «CP Дистрибуция», ...-Режиссер: Кэри Фукунага / Cary Fukunaga
В главных ролях: Мэттью МакКонахи, Вуди Харрельсон, Мишель Монахэн, Майкл Поттс, Тори Киттлз, Брюс Эллиотт, Мэдисон Вульф, Рендал Гонсалес, Дэвид Стивен Митчелл, Эрик Прайс ...
Роли дублировали: Дмитрий Поляновский, Дмитрий Полонский, Рамиля Искандер-Описание фильма:
Главные герои — два детектива. В 2012 году в штате Луизиана повторно открывается дело о серийном убийстве в 1995 году. Детективы познакомились 17 лет назад, когда началось расследование, и с тех пор вместе охотились за киллером. Повествование будет вестись как в наше время, так и откатится назад, в середину девяностых.-Сезон: 1
Серии: 8 из 8 серий
Продолжительность: ~ 00:59:00 мин серия-Качество видео: HDTVRip
Формат: AVI
Видеокодек: XviD
Аудиокодек: Mp3
Видео: MPEG-4 Visual at 1353 Кбит/сек, 720 x 400 (1.800) at 23.976 fps, 0.196 Бит/Пиксели
Аудио Rus: MPEG Audio at 128 Кбит/сек: 2 канала, 48,0 КГц |Кубик в Кубе|
Аудио Eng: MPEG Audio at 128 Кбит/сек: 2 канала, 48,0 КГц |Original|
- -
-
  • Огромная яркая темнота (The Long Bright Dark)
  • Галлюцинации (Seeing Things)
  • Закрытая комната (The Locked Room)
  • Стой, кто идет (Who Goes There)
  • Тайна самой жизни (The Secret Fate of All Life )
  • Дома с привидениями (Haunted Houses)
  • После того, как Ты Ушел (After You've Gone)
  • Форма и Пустота (Form and Void)
-
Код:
Общее
Полное имя                               : E:\_Сериалы\222\Настоящий детектив\True Detective-1(Кубик в Кубе)\True.Detectiv.s01e01.HDTVRip.XviD.Rus.Eng..avi
Формат                                   : AVI
Формат/Информация                        : Audio Video Interleave
Размер файла                             : 700 Мбайт
Продолжительность                        : 1 ч. 0 м.
Общий поток                              : 1623 Кбит/сек
Программа кодирования                    : VirtualDubModRus 1.5.10.2 (build 2542/release)
Библиотека кодирования                   : VirtualDubMod build 2542/release
Видео
Идентификатор                            : 0
Формат                                   : MPEG-4 Visual
Профиль формата                          : Advanced [email protected]
Параметр BVOP формата                    : 2
Параметр QPel формата                    : Нет
Параметр GMC формата                     : Без точки перехода
Параметр матрицы формата                 : Default (H.263)
Идентификатор кодека                     : XVID
Идентификатор кодека/Подсказка           : XviD
Продолжительность                        : 1 ч. 0 м.
Битрейт                                  : 1353 Кбит/сек
Ширина                                   : 720 пикселей
Высота                                   : 400 пикселей
Соотношение сторон                       : 16:9
Частота кадров                           : 23,976 кадра/сек
Цветовое пространство                    : YUV
Субдискретизация насыщенности            : 4:2:0
Битовая глубина                          : 8 бит
Тип развёртки                            : Прогрессивная
Метод сжатия                             : С потерями
Бит/(Пиксели*Кадры)                      : 0.196
Размер потока                            : 584 Мбайт (83%)
Библиотека кодирования                   : XviD 64
Аудио #1
Идентификатор                            : 1
Формат                                   : MPEG Audio
Версия формата                           : Version 1
Профиль формата                          : Layer 3
Режим                                    : Joint stereo
Расширение режима                        : MS Stereo
Идентификатор кодека                     : 55
Идентификатор кодека/Подсказка           : MP3
Продолжительность                        : 1 ч. 0 м.
Вид битрейта                             : Постоянный
Битрейт                                  : 128 Кбит/сек
Каналы                                   : 2 канала
Частота                                  : 48,0 КГц
Метод сжатия                             : С потерями
Размер потока                            : 55,2 Мбайт (8%)
Выравнивание                             : Разделение по промежуткам
Продолжительность промежутка             : 42  мс. (1,00 видеокадр)
Время предзагрузки промежутка            : 500  мс.
Аудио #2
Идентификатор                            : 2
Формат                                   : MPEG Audio
Версия формата                           : Version 1
Профиль формата                          : Layer 3
Режим                                    : Joint stereo
Расширение режима                        : MS Stereo
Идентификатор кодека                     : 55
Идентификатор кодека/Подсказка           : MP3
Продолжительность                        : 1 ч. 0 м.
Вид битрейта                             : Постоянный
Битрейт                                  : 128 Кбит/сек
Каналы                                   : 2 канала
Частота                                  : 48,0 КГц
Метод сжатия                             : С потерями
Размер потока                            : 55,2 Мбайт (8%)
Выравнивание                             : Разделение по промежуткам
Продолжительность промежутка             : 42  мс. (1,00 видеокадр)
Время предзагрузки промежутка            : 500  мс.
748137
-
-Скриншоты:
-
-Добавлена восьмая, заключительная, серия первого сезона
Download / Скачать

Хотите скачать бесплатно? Зарегистрируйтесь на сайте (ссылка на регистрацию). Pirat.ca - самый быстрый торрент трекер в рунете!

Как скачивать  ·   Что такое торрент  ·   Рейтинг и ограничения



Последний раз редактировалось: kugesan (2014-03-12 21:38), всего редактировалось 8 раз(а)

kugesan ®

56651

Пост 27-Фев-2014 15:42 (спустя 1 минута)

[Q] 

Добавлена пятая серия

_________________

В мире две бесконечности: вселенная и человеческая глупость - Альберт Эйнштен
«Можно вытащить человека из грязи, но нельзя вытащить грязь из человека»!
[Профиль]  [ЛС] 

morgan_ru

Лоцман

Пост 27-Фев-2014 22:54 (спустя 7 часов)

[Q] 

Спасибо за раздачу!
А есть от этой студии в 720р?
[Профиль]  [ЛС] 

kugesan ®

56651

Пост 27-Фев-2014 23:02 (спустя 7 минут)

[Q] 

morgan_ru, Есть конечно, так что можете выкладывать)

_________________

В мире две бесконечности: вселенная и человеческая глупость - Альберт Эйнштен
«Можно вытащить человека из грязи, но нельзя вытащить грязь из человека»!
[Профиль]  [ЛС] 

kugesan ®

56651

Пост 12-Мар-2014 18:03 (спустя 12 дней)

[Q] 

Добавлена восьмая, заключительная, серия первого сезона

_________________

В мире две бесконечности: вселенная и человеческая глупость - Альберт Эйнштен
«Можно вытащить человека из грязи, но нельзя вытащить грязь из человека»!
[Профиль]  [ЛС] 

persecond

Морской Волк

Пост 12-Мар-2014 23:52 (спустя 5 часов)

[Q] 

http://lenta.ru/articles/2014/03/11/true/ - до спойлеров не дошёл, но сразу же решил, что надо посмотреть.

_________________
Будь профи: делай, что нужно, улыбаясь, или не делай вовсе.
[Профиль]  [ЛС] 

Hombre250

Морской Волк

Пост 13-Мар-2014 12:54 (спустя 13 часов)

[Q] 

благодарю за труды!
[Профиль]  [ЛС] 

m63723

Штурман

Пост 17-Мар-2014 00:44 (спустя 3 дня)

[Q] 

HBO в своем репертуаре, сплошь и рядом скрытая реклама. Весь сериал главные герои курят и пьют.
Два момента особенных, это когда он открывает ящик с оружием и переключается на бухло, второй когда красивая девушка (вторая любовница) завязала с плохим прошлым, тут у зрителя складывается впечатление крайнее положительного персонажа и вдруг она неожиданно закуривает.
Вообщем снято хорошо и фильм интересный, посмотрел только по рекомендации, сам завязал с фильмами, перешел на книги. И всем советую.
[Профиль]  [ЛС] 

KadaFFi

Корсар

Пост 26-Окт-2014 13:46 (спустя 7 месяцев 9 дней)

[Q] 

Когда будет 2-й сезон?

_________________
[Профиль]  [ЛС] 

kugesan ®

56651

Пост 26-Окт-2014 14:53 (спустя 1 час 7 минут)

[Q] 

В 2015 году

_________________

В мире две бесконечности: вселенная и человеческая глупость - Альберт Эйнштен
«Можно вытащить человека из грязи, но нельзя вытащить грязь из человека»!
[Профиль]  [ЛС] 

jafarior

Пост 11-Дек-2014 23:53 (спустя 1 месяц 16 дней)

[Q] 

На сегодняшний день это чуть ли не единственная живая раздача в рунете и та в качестве для смартфона, блин.
Обещаю быть пожизненным сидером, если заделитесь нормальным качеством.
[Профиль]  [ЛС] 

shelby290

Флибустьер

Пост 05-Июл-2015 21:33 (спустя 6 месяцев 24 дня)

[Q] 

очень понравился! рекомендую к просмотру!
Автору респект!!!
[Профиль]  [ЛС] 

Victorsalata

Корсар

Пост 17-Авг-2015 10:25 (спустя 1 месяц 11 дней)

[Q] 

Мне понравился. Рекомендую смотреть.
[Профиль]  [ЛС] 
Показать сообщения:    
Ответить на тему

Текущее время: Сегодня 12:13

Часовой пояс: GMT + 4



Вы не можете начинать темы
Вы не можете отвечать на сообщения
Вы не можете редактировать свои сообщения
Вы не можете удалять свои сообщения
Вы не можете голосовать в опросах
Вы не можете прикреплять файлы к сообщениям
Вы не можете скачивать файлы

▼ Вниз