ML
     
  Уважаемый Гость!
Вы можете поддержать проект и зарегистрироваться у наших партнеров - онлайн-стратегия MyLands. При регистрации в игре Вы получите код, который сможете активировать после регистрации на pirat.ca и получить 1000 дублонов.

Ваш код:
c89b4b6523eaac3173e9a9c062ac1a19db575961
 
     

Викинги / Vikings / Сезон: 2 / полный / 10 серий (Киаран Доннелли / Ciaran Donnelly ...) [2014 г., боевик, драма, военный, история, ..., WEB-DLRip] MVO (NewStudio) + Original (Eng)

Ответить на тему
 
Автор
Сообщение

Пост 28-Фев-2014 23:19

[Q] 

kugesan

-Викинги / Vikings
«The Storm Is Coming»
-- Производство: Ирландия, Канада
Жанр: боевик, драма, военный, история, ...
Год выпуска: 2014 г.-Мировая премьера: 3 марта 2013, ...
Российская премьера:1 июля 2013-Озвучка: Студия |NewStudio|
Перевод: Многоголосый закадровый, профессиональный
Оригинальный аудиопоток: английский-Автор перевода: Weirdie
Постер: Андрей Шапал-Режиссер: Киаран Доннелли / Ciaran Donnelly, Кен Джиротти / Ken Girotti, Йохан Ренк / Johan Renck ...-В ролях: Трэвис Фиммел, Клайв Стэнден, Гэбриел Бирн, Кэтрин Уинник, Джессалин Гилсиг, Джордж Благден, Густаф Скарсгард, Торбьорн Харр, Владимир Кулих, Донал Лог, Айван Кэй, Мод Хирст, Эрик Хиггинс, Герард Маккарти, Юко Ахола, Эми Де Брюн, Сэм Смит, Билл Гибсон, Кевин Мюррэй-Описание:
История повествует о приключениях величайшего героя своего времени – Рагнара Лодброка. В сериале показан Рагнар со своим племенем братьев-викингов и его семьёй в процессе становления королём всех племён викингов. Рагнар – бесстрашный воин, и религиозный викинг, который объединяет все племена и распространяет среди них поклонение скандинавским богам. Согласно легенде, он – прямой потомок Одина, бога войны и воителей.-Сезон: 2
Серии: 10 из 10 серий
Продолжительность: ~ 00:44:00 мин серия-Качество видео: WEB-DLRip
Контейнер: AVI
Видео кодек: XviD
Аудио кодек: MP3
Видео: MPEG-4 Visual at 1462 Кбит/сек: 720 x 400 (1.800) at 23.976 fps: 0.21 Бит/Пиксели
Аудио Rus: MPEG Audio at 128 Кбит/сек, 2 канала, 48,0 КГц |NewStudio|
Аудио Eng: MPEG Audio at 128 Кбит/сек, 2 канала, 48,0 КГц |Original|
Cубтитры: отсутствуют
- -
  • Братская война (Brother's War)
  • Набег (Invasion)
  • Вероломство (Treachery)
  • Око за око (Eye for an Eye)
  • Ответ кровью (Answers in Blood)
  • Непрощённый (Unforgiven)
  • Кровавый Орел (Blood Eagle)
  • Бескостный (Boneless)
  • Выбор (The Choice)
  • отче наш (The Lord's Prayer)
Код:
Общее
Полное имя                               : E:\_Сериалы\000\Викинги\Vikings-2(NewStudio)\Vikings.s02e01.WEBDLRip.NewStudio.TV.avi
Формат                                   : AVI
Формат/Информация                        : Audio Video Interleave
Размер файла                             : 550 Мбайт
Продолжительность                        : 44 м.
Общий поток                              : 1732 Кбит/сек
Программа кодирования                    : VirtualDubMod 1.5.10.2 (build 2540/release)
Библиотека кодирования                   : VirtualDubMod build 2540/release
Видео
Идентификатор                            : 0
Формат                                   : MPEG-4 Visual
Профиль формата                          : Advanced [email protected]
Параметр BVOP формата                    : 2
Параметр QPel формата                    : Нет
Параметр GMC формата                     : Без точки перехода
Параметр матрицы формата                 : Default (MPEG)
Идентификатор кодека                     : XVID
Идентификатор кодека/Подсказка           : XviD
Продолжительность                        : 44 м.
Битрейт                                  : 1462 Кбит/сек
Ширина                                   : 720 пикселей
Высота                                   : 400 пикселей
Соотношение сторон                       : 16:9
Частота кадров                           : 23,976 кадра/сек
Цветовое пространство                    : YUV
Субдискретизация насыщенности            : 4:2:0
Битовая глубина                          : 8 бит
Тип развёртки                            : Прогрессивная
Метод сжатия                             : С потерями
Бит/(Пиксели*Кадры)                      : 0.212
Размер потока                            : 464 Мбайт (84%)
Библиотека кодирования                   : XviD 64
Аудио #1
Идентификатор                            : 1
Формат                                   : MPEG Audio
Версия формата                           : Version 1
Профиль формата                          : Layer 3
Режим                                    : Joint stereo
Расширение режима                        : MS Stereo
Идентификатор кодека                     : 55
Идентификатор кодека/Подсказка           : MP3
Продолжительность                        : 44 м.
Вид битрейта                             : Постоянный
Битрейт                                  : 128 Кбит/сек
Каналы                                   : 2 канала
Частота                                  : 48,0 КГц
Метод сжатия                             : С потерями
Размер потока                            : 40,7 Мбайт (7%)
Выравнивание                             : Соединение по промежуткам
Продолжительность промежутка             : 42  мс. (1,00 видеокадр)
Время предзагрузки промежутка            : 504  мс.
Аудио #2
Идентификатор                            : 2
Формат                                   : MPEG Audio
Версия формата                           : Version 1
Профиль формата                          : Layer 3
Режим                                    : Joint stereo
Расширение режима                        : MS Stereo
Идентификатор кодека                     : 55
Идентификатор кодека/Подсказка           : MP3
Продолжительность                        : 44 м.
Вид битрейта                             : Постоянный
Битрейт                                  : 128 Кбит/сек
Каналы                                   : 2 канала
Частота                                  : 48,0 КГц
Метод сжатия                             : С потерями
Размер потока                            : 40,7 Мбайт (7%)
Выравнивание                             : Соединение по промежуткам
Продолжительность промежутка             : 42  мс. (1,00 видеокадр)
Время предзагрузки промежутка            : 504  мс.
Библиотека кодирования                   : LAME3.99r
Настройки программы                      : -m j -V 4 -q 2 -lowpass 17 -b 128
-Добавлена десятая, заключительная, серия второго сезона
Download / Скачать

Хотите скачать бесплатно? Зарегистрируйтесь на сайте (ссылка на регистрацию). Pirat.ca - самый быстрый торрент трекер в рунете!

Как скачивать  ·   Что такое торрент  ·   Рейтинг и ограничения



Последний раз редактировалось: kugesan (2016-08-27 23:33), всего редактировалось 12 раз(а)

MaXoR

Флибустьер

1475

Пост 01-Мар-2014 06:45 (спустя 7 часов)

[Q] 

Наконец - то новые серии! Вау). Спасибо!

_________________
Живы будем - не помрем!
[Профиль]  [ЛС] 

plistikanatolii

Морской Волк

Пост 01-Мар-2014 11:55 (спустя 5 часов)

[Q] 

благодарствую.первый сезон понравился
[Профиль]  [ЛС] 

Region-89

Гроза морей

550

Пост 01-Мар-2014 12:39 (спустя 44 минуты)

[Q] 

Супер! аффтору респект!! Всем качать!!!

_________________
[Профиль]  [ЛС] 

ladranik

Морской Волк

Пост 01-Мар-2014 13:36 (спустя 56 минут)

[Q] 

Большое спасибо!
[Профиль]  [ЛС] 

Region-89

Гроза морей

550

Пост 22-Мар-2014 14:04 (спустя 21 день)

[Q] 

спасибо! aa

_________________
[Профиль]  [ЛС] 

kugesan ®

56713

Пост 22-Мар-2014 20:01 (спустя 5 часов)

[Q] 

Приятного просмотра!!!

_________________

В мире две бесконечности: вселенная и человеческая глупость - Альберт Эйнштен
«Можно вытащить человека из грязи, но нельзя вытащить грязь из человека»!
[Профиль]  [ЛС] 

irwinyga

Шкипер

Пост 24-Мар-2014 22:55 (спустя 2 дня 2 часа)

[Q] 

спасибо Спасибо!!!
[Профиль]  [ЛС] 

stas-burn

Корсар

Пост 31-Мар-2014 11:11 (спустя 6 дней)

[Q] 

Спасибо!!! Супер!
[Профиль]  [ЛС] 

SantaZombie

Шкипер

Пост 21-Апр-2014 23:12 (спустя 21 день)

[Q] 

Огромное спасибо!

_________________
[Профиль]  [ЛС] 

kugesan ®

56713

Пост 25-Апр-2014 23:19 (спустя 4 дня)

[Q] 

Добавлена девятая серия второго сезона

_________________

В мире две бесконечности: вселенная и человеческая глупость - Альберт Эйнштен
«Можно вытащить человека из грязи, но нельзя вытащить грязь из человека»!
[Профиль]  [ЛС] 

Pribulec

Корсар

159

Пост 26-Апр-2014 00:05 (спустя 45 минут)

[Q] 

Спасибо сказали многие. А вот скачивать 3 дня это жесть =)
[Профиль]  [ЛС] 

ss80

Флибустьер

36

Пост 27-Апр-2014 17:55 (спустя 1 день 17 часов)

[Q] 

Спасибо!!!
[Профиль]  [ЛС] 

kugesan ®

56713

Пост 27-Апр-2014 18:09 (спустя 14 минут)

[Q] 

ss80, Пожалуйста!!!
Pribulec, Странно... Релиз всего сутки с небольшим залит как, а вы уже трое качаете...

_________________

В мире две бесконечности: вселенная и человеческая глупость - Альберт Эйнштен
«Можно вытащить человека из грязи, но нельзя вытащить грязь из человека»!
[Профиль]  [ЛС] 

Танюха10988

Гроза морей

Пост 28-Апр-2014 00:01 (спустя 5 часов)

[Q] 

Спасибо!!! !COOL!
[Профиль]  [ЛС] 

kugesan ®

56713

Пост 02-Май-2014 22:26 (спустя 4 дня)

[Q] 

Добавлена десятая, заключительная, серия второго сезона
Третий сезон ожидается в начале 2015 года.

_________________

В мире две бесконечности: вселенная и человеческая глупость - Альберт Эйнштен
«Можно вытащить человека из грязи, но нельзя вытащить грязь из человека»!
[Профиль]  [ЛС] 

AyaHirano

Лоцман

Пост 03-Май-2014 14:49 (спустя 16 часов)

[Q] 

Лови бочку Спасибо!!!
хороший сериал
[Профиль]  [ЛС] 

Ramirros

Морской Волк

Пост 03-Май-2014 22:18 (спустя 7 часов)

[Q] 

:47:HBO-лучшие!!
[Профиль]  [ЛС] 

zavroi

Штурман

Пост 04-Май-2014 07:41 (спустя 9 часов)

[Q] 

Класс!! На одном дыхании!! Спасибо Супер!
[Профиль]  [ЛС] 

Volk Inferno

Мичман

Пост 01-Июн-2014 11:22 (спустя 28 дней)

[Q] 

Викинги рулят!!! Автору респект!!!
[Профиль]  [ЛС] 

kugesan ®

56713

Пост 01-Июн-2014 11:32 (спустя 10 минут)

[Q] 

Приятного просмотра!!!

_________________

В мире две бесконечности: вселенная и человеческая глупость - Альберт Эйнштен
«Можно вытащить человека из грязи, но нельзя вытащить грязь из человека»!
[Профиль]  [ЛС] 

BooRZhuY

Штурман

Пост 31-Мар-2015 10:23 (спустя 9 месяцев 29 дней)

[Q] 

Сериал супер!!! Спасибо!!!

_________________
[URL= [/URL]
[Профиль]  [ЛС] 
Показать сообщения:    
Ответить на тему

Текущее время: Сегодня 22:29

Часовой пояс: GMT + 4



Вы не можете начинать темы
Вы не можете отвечать на сообщения
Вы не можете редактировать свои сообщения
Вы не можете удалять свои сообщения
Вы не можете голосовать в опросах
Вы не можете прикреплять файлы к сообщениям
Вы не можете скачивать файлы

▼ Вниз