ML
     
  Уважаемый Гость!
Вы можете поддержать проект и зарегистрироваться у наших партнеров - онлайн-стратегия MyLands. При регистрации в игре Вы получите код, который сможете активировать после регистрации на pirat.ca и получить 1000 дублонов.

Ваш код:
8b752b428cf60a012c159dcae592cd1392170115
 
     

Настоящий детектив / True Detective (Сезон 1 / полный / 8 серий) (Кэри Фукунага / Cary Fukunaga) [2014г., драма, криминал, ..., HDTVRip] MVO (BaibaKo) + Original (Eng)

Ответить на тему
 
Автор
Сообщение

Пост 04-Мар-2014 22:48

[Q] 

kugesan

Настоящий детектив / True Detective
«Man is the cruelest animal»
- Русское название: Настоящий детектив
Оригинальное название: True Detective
Страна: США
Год выпуска: 2014
Жанр: драма, криминал, ...-Релиз:
Перевод: Многоголосый закадровый, профессиональный
Оригинальный аудиопоток: английский-Премьера (мир): 12 января 2014, ...
премьера (РФ): 13 января 2014
Релиз на DVD: 12 июня 2014, «CP Дистрибуция», ...-Режиссер: Кэри Фукунага / Cary Fukunaga
В главных ролях: Мэттью МакКонахи, Вуди Харрельсон, Мишель Монахэн, Майкл Поттс, Тори Киттлз, Брюс Эллиотт, Мэдисон Вульф, Рендал Гонсалес, Дэвид Стивен Митчелл, Эрик Прайс ...
Роли дублировали: Дмитрий Поляновский, Дмитрий Полонский, Рамиля Искандер-Описание фильма:
Главные герои — два детектива. В 2012 году в штате Луизиана повторно открывается дело о серийном убийстве в 1995 году. Детективы познакомились 17 лет назад, когда началось расследование, и с тех пор вместе охотились за киллером. Повествование будет вестись как в наше время, так и откатится назад, в середину девяностых.-Сезон: 1
Серии: 8 из 8 серий
Продолжительность: ~ 00:59:00 мин серия-Качество видео: HDTVRip
Формат: AVI
Видеокодек: XviD
Аудиокодек: Mp3
Видео: MPEG-4 Visual at 1709 Кбит/сек: 720 x 400 (1.800) at 23.976 fps, 0.25 Бит/Пиксели
Аудио Rus: MPEG Audio at 192 Кбит/сек: 2 канала, 48,0 КГц |BaibaKo|
Аудио Eng: MPEG Audio at 192 Кбит/сек: 2 канала, 48,0 КГц |Original|
- -
-
  • Огромная яркая темнота (The Long Bright Dark)
  • Галлюцинации (Seeing Things)
  • Закрытая комната (The Locked Room)
  • Стой, кто идет (Who Goes There)
  • Тайна самой жизни (The Secret Fate of All Life )
  • Дома с привидениями (Haunted Houses)
  • После того, как Ты Ушел (After You've Gone)
  • Форма и Пустота (Form and Void)
-
Код:
Общее
Полное имя                               : E:\_Сериалы\222\Настоящий детектив\True Detective-1(BaibaKo)\True.Detective.s01e01.HDTVRip.XviD.Rus.Eng.BaibaKo.tv.avi
Формат                                   : AVI
Формат/Информация                        : Audio Video Interleave
Размер файла                             : 900 Мбайт
Продолжительность                        : 59 м.
Общий поток                              : 2107 Кбит/сек
Программа кодирования                    : VirtualDubMod 1.5.10.2 (build 2540/release)
Библиотека кодирования                   : VirtualDubMod build 2540/release
Видео
Идентификатор                            : 0
Формат                                   : MPEG-4 Visual
Профиль формата                          : Advanced [email protected]
Параметр BVOP формата                    : 2
Параметр QPel формата                    : Нет
Параметр GMC формата                     : Без точки перехода
Параметр матрицы формата                 : Default (H.263)
Идентификатор кодека                     : XVID
Идентификатор кодека/Подсказка           : XviD
Продолжительность                        : 59 м.
Битрейт                                  : 1709 Кбит/сек
Ширина                                   : 720 пикселей
Высота                                   : 400 пикселей
Соотношение сторон                       : 16:9
Частота кадров                           : 23,976 кадра/сек
Цветовое пространство                    : YUV
Субдискретизация насыщенности            : 4:2:0
Битовая глубина                          : 8 бит
Тип развёртки                            : Прогрессивная
Метод сжатия                             : С потерями
Бит/(Пиксели*Кадры)                      : 0.247
Размер потока                            : 730 Мбайт (81%)
Библиотека кодирования                   : XviD 1.2.1 (UTC 2008-12-04)
Аудио #1
Идентификатор                            : 1
Формат                                   : MPEG Audio
Версия формата                           : Version 1
Профиль формата                          : Layer 3
Режим                                    : Joint stereo
Идентификатор кодека                     : 55
Идентификатор кодека/Подсказка           : MP3
Продолжительность                        : 59 м.
Вид битрейта                             : Постоянный
Битрейт                                  : 192 Кбит/сек
Каналы                                   : 2 канала
Частота                                  : 48,0 КГц
Метод сжатия                             : С потерями
Размер потока                            : 82,0 Мбайт (9%)
Выравнивание                             : Соединение по промежуткам
Продолжительность промежутка             : 42  мс. (1,00 видеокадр)
Время предзагрузки промежутка            : 504  мс.
Аудио #2
Идентификатор                            : 2
Формат                                   : MPEG Audio
Версия формата                           : Version 1
Профиль формата                          : Layer 3
Режим                                    : Joint stereo
Идентификатор кодека                     : 55
Идентификатор кодека/Подсказка           : MP3
Продолжительность                        : 59 м.
Вид битрейта                             : Постоянный
Битрейт                                  : 192 Кбит/сек
Каналы                                   : 2 канала
Частота                                  : 48,0 КГц
Метод сжатия                             : С потерями
Размер потока                            : 82,0 Мбайт (9%)
Выравнивание                             : Соединение по промежуткам
Продолжительность промежутка             : 42  мс. (1,00 видеокадр)
Время предзагрузки промежутка            : 504  мс.
748424
-
-Скриншоты:
-
-Добавлена восьмая, заключительная, серия первого сезона
Download / Скачать

Хотите скачать бесплатно? Зарегистрируйтесь на сайте (ссылка на регистрацию). Pirat.ca - самый быстрый торрент трекер в рунете!

Как скачивать  ·   Что такое торрент  ·   Рейтинг и ограничения



Последний раз редактировалось: kugesan (2014-04-02 14:15), всего редактировалось 1 раз

kugesan ®

56634

Пост 02-Апр-2014 14:16 (спустя 28 дней)

[Q] 

Добавлена восьмая, заключительная, серия первого сезона

_________________

В мире две бесконечности: вселенная и человеческая глупость - Альберт Эйнштен
«Можно вытащить человека из грязи, но нельзя вытащить грязь из человека»!
[Профиль]  [ЛС] 

rulin

Лоцман

Пост 11-Апр-2014 01:11 (спустя 8 дней)

[Q] 

Спасибо!!! Всем качать!!!
[Профиль]  [ЛС] 

Stare75

Лоцман

Пост 08-Июн-2014 21:53 (спустя 1 месяц 27 дней)

[Q] 

Спасибо!!! Супер!
Офигенный фильм. Просто бомба.
[Профиль]  [ЛС] 

GnomKa

Шкипер

Пост 28-Окт-2014 04:15 (спустя 4 месяца 19 дней)

[Q] 

Сериал шедевральный! Советую всем посмотреть! отличнейшие монологи, великолепный сюжет жизненные ситуации. Смотрела всю ночь на одном дыхании) просто супер супер!!! Лови бочку Всем качать!!!

_________________
Человек человеку волк, а зомби зомби зомби
[Профиль]  [ЛС] 

янка-сан

Гроза морей

Пост 18-Дек-2015 20:21 (спустя 1 год 1 месяц)

[Q] 

благодарю Лови бочку
[Профиль]  [ЛС] 
Показать сообщения:    
Ответить на тему

Текущее время: Сегодня 06:20

Часовой пояс: GMT + 4



Вы не можете начинать темы
Вы не можете отвечать на сообщения
Вы не можете редактировать свои сообщения
Вы не можете удалять свои сообщения
Вы не можете голосовать в опросах
Вы не можете прикреплять файлы к сообщениям
Вы не можете скачивать файлы

▼ Вниз