ML
     
  Уважаемый Гость!
Вы можете поддержать проект и зарегистрироваться у наших партнеров - онлайн-стратегия MyLands. При регистрации в игре Вы получите код, который сможете активировать после регистрации на pirat.ca и получить 1000 дублонов.

Ваш код:
0af2e2107bc9b5dd5ac2c09f9fc25e1a77c43887
 
     

Оранжевый - хит сезона / Оранжевый - новый чёрный / Orange Is the New Black / Сезон: 3 / Полный / Серии: 13 из 13 (Майкл Трим / Michael Trim, ...) [2015 г., драма, комедия, криминал, ..., HDTVRip] MVO (NewStudio) + Original (Eng)

Ответить на тему
 
Автор
Сообщение

Пост 06-Мар-2014 13:14

[Q] 

kugesan

-Оранжевый - хит сезона
Оранжевый - новый чёрный / Orange Is the New Black

«Every sentence is a story»
-- Производство: США
Жанр: драма, комедия, криминал, ...
Год выпуска: 2015 г.-Мировая премьера: 11 июля 2013, ...-Озвучка: Студия |NewStudio|
Перевод: Многоголосый закадровый, профессиональный
Оригинальный аудиопоток: английский-Перевод: Ирина Гвозденко, Александра Цернант, Юлия Мейер, Григорий Сенин, Юрий Башенкер
Постер: Андрей Шапал-Режиссер: Майкл Трим / Michael Trim, Эндрю МакКарти / Andrew McCarthy, Фил Абрахам / Phil Abraham, ...-В ролях: Тейлор Шиллинг, Джейсон Биггз, Мишель Хёрст, Кейт Малгрю, Наташа Лионн, Лора Припон ...-Описание:
Пайпер Чепмен — обычная жительница Коннектикута. Она любит свою благополучную жизнь и все её приятные мелочи. Душ по утрам, красивый завтрак, занятия любовью. Но случается так, что благодаря своему мимолетному увлечению крупным наркоторговцем, Пайпер оказывается заключенной в тюрьму на долгие пятнадцать месяцев. Отныне ей необходимо не только привыкнуть к новому окружению, но и просто — выжить.-Сезон: 3
Серии: 13 из 13 серий
Продолжительность: ~ 00:51:00 мин серия-
Качество видео: HDTVRip
Контейнер: AVI
Видео кодек: XviD
Аудио кодек: MP3
Видео: MPEG-4 Visual at 1646 Кбит/сек: 720 x 400 (1.800) at 23.976 fps: 0.24 Бит/Пиксели
Аудио Rus: MPEG Audio at 128 Кбит/сек, 2 канала, 48,0 КГц |NewStudio|
Аудио Eng: MPEG Audio at 128 Кбит/сек, 2 канала, 48,0 КГц |Original|
Cубтитры: отсутствуют
- -
  • День Матери (Mother's Day)
  • Клопы и прочие радости (Bed Bugs and Beyond)
  • С эмпатией и трахаться не хочется (Empathy Is a Boner Killer)
  • Вон, бучиха (Finger in the Dyke)
  • Обманывай, пока можешь, а потом - ещё (Fake It Till You Fake It Some More)
  • Китаёза Чен (Ching Chong Chang)
  • Молчаливая (Tongue-Tied)
  • Страх и другие запахи (Fear, and Other Smells)
  • Несите мой дрейдл (Where My Dreidel At)
  • Сиськи и волосы (A Tittin' and a Hairin')
  • Мы все герои (We Can Be Heroes)
  • Не заставляй меня туда идти (Don't Make Me Come Back There)
  • Не доверяй сучкам (Trust No Bitch)
-
Общее
Полное имя : E:\_Сериалы\_Сериалы\Оранжевый - хит сезона\Orange.Is.the.New.Black.s03.WEBRip.NewStudio.TV\Orange.Is.the.New.Black.s03e01.WEBRip.NewStudio.TV.avi
Формат : AVI
Формат/Информация : Audio Video Interleave
Размер файла : 700 Мбайт
Продолжительность : 51 м.
Общий поток : 1916 Кбит/сек
Программа кодирования : VirtualDubMod 1.5.10.2 (build 2540/release)
Библиотека кодирования : VirtualDubMod build 2540/release
Видео
Идентификатор : 0
Формат : MPEG-4 Visual
Профиль формата : Advanced [email protected]
Параметр BVOP формата : 2
Параметр QPel формата : Нет
Параметр GMC формата : Без точки перехода
Параметр матрицы формата : Default (MPEG)
Идентификатор кодека : XVID
Идентификатор кодека/Подсказка : XviD
Продолжительность : 51 м.
Битрейт : 1646 Кбит/сек
Ширина : 720 пикселей
Высота : 400 пикселей
Соотношение сторон : 16:9
Частота кадров : 23,976 кадра/сек
Цветовое пространство : YUV
Субдискретизация насыщенности : 4:2:0
Битовая глубина : 8 бит
Тип развёртки : Прогрессивная
Метод сжатия : С потерями
Бит/(Пиксели*Кадры) : 0.238
Размер потока : 601 Мбайт (86%)
Библиотека кодирования : XviD 73
Аудио #1
Идентификатор : 1
Формат : MPEG Audio
Версия формата : Version 1
Профиль формата : Layer 3
Режим : Joint stereo
Расширение режима : MS Stereo
Идентификатор кодека : 55
Идентификатор кодека/Подсказка : MP3
Продолжительность : 51 м.
Вид битрейта : Постоянный
Битрейт : 128 Кбит/сек
Каналы : 2 канала
Частота : 48,0 КГц
Метод сжатия : С потерями
Размер потока : 46,8 Мбайт (7%)
Выравнивание : Соединение по промежуткам
Продолжительность промежутка : 42 мс. (1,00 видеокадр)
Время предзагрузки промежутка : 504 мс.
Аудио #2
Идентификатор : 2
Формат : MPEG Audio
Версия формата : Version 1
Профиль формата : Layer 3
Режим : Joint stereo
Идентификатор кодека : 55
Идентификатор кодека/Подсказка : MP3
Продолжительность : 51 м.
Вид битрейта : Постоянный
Битрейт : 128 Кбит/сек
Каналы : 2 канала
Частота : 48,0 КГц
Метод сжатия : С потерями
Размер потока : 46,8 Мбайт (7%)
Выравнивание : Соединение по промежуткам
Продолжительность промежутка : 42 мс. (1,00 видеокадр)
Время предзагрузки промежутка : 504 мс.
Библиотека кодирования : LAME3.99r
Настройки программы : -m j -V 4 -q 2 -lowpass 17 -b 128
-
-Скриншоты:
-
-
Раздача ведётся путём добавления новых серий; при каждом добавлении создаётся новый торрент.
Чтобы начать докачку новой серии, пользователям необходимо сделать следующее:
1. остановить скачивание,
2. удалить старый торрент у себя из клиента (старые серии удалять не надо),
3. скачать новый торрент и запустить его у себя в клиенте вместо старого, при этом указать клиенту путь в старую папку, куда и должно происходить скачивание новых серий.
Ваш клиент при этом должен произвести хеширование (проверку) старой папки (если не производит сам - помогите ему сделать это), и будет докачивать только те серии которых у вас ещё нет. Старые серии при этом не удаляются, а продолжают раздаваться!
Eсли вы уже удалили старые серии, то предотвратить повторную закачку старых серий можно, отжав галочку в соответствующих местах при запуске нового торрента. По возможности, желательно не удалять старые серии как можно дольше, чтобы релизёр не столько продолжал раздавать старые серии, а смог сконцентрироваться на новых.
Совет для тех, кто не хочет ждать перехеширования:
Создайте ещё одну папку рядом с папкой сериала (рядом, а не в ней!!!). Каждую новую серию после удачной загрузки копируйте в новую папку так чтобы ваша основная папка всегда была пуста. Когда ваш новый торрент предложит вам закачать все файлы, выберете только последнюю. Для сидирования же укажите адрес новой папки.
Как закачать отдельный файл из торрента или докачать ранее пропущенные файлы торрента!
-
1. Открыть торрент
2. Снять галки с тех файлов торрента, которые мы не хотим закачивать. Оставляем только на нужных нам файлах (файле).
3. Нажать О.К.
В клиенте utorrent
Инструкция
1) Открыть торрент

2) Снять галки с тех файлов торрента, которые мы не хотим закачивать:
* либо вручную, снимая с каждого файла галку( скрин №1)
* либо, нажав кнопку "Снять метки (Select None)", сняв сразу со всех файлов(скрин №2)
№1

№2

Оставляем только на нужных нам файлах (файле).

3)Нажать О.К
Добавлена тринадцатая, заключительная, серия третьего сезона
Download / Скачать

Хотите скачать бесплатно? Зарегистрируйтесь на сайте (ссылка на регистрацию). Pirat.ca - самый быстрый торрент трекер в рунете!

Как скачивать  ·   Что такое торрент  ·   Рейтинг и ограничения



Последний раз редактировалось: kugesan (2015-06-20 22:45), всего редактировалось 17 раз(а)

kugesan ®

56687

Пост 20-Июн-2015 22:45 (спустя 1 год 3 месяца)

[Q] 

Добавлена тринадцатая, заключительная, серия третьего сезона

_________________

В мире две бесконечности: вселенная и человеческая глупость - Альберт Эйнштен
«Можно вытащить человека из грязи, но нельзя вытащить грязь из человека»!
[Профиль]  [ЛС] 

Пост 20-Июн-2015 23:49 (спустя 1 час 3 минуты)

Топик был перенесен из форума Сериалы в эфире в форум Зарубежные сериалы
Андря
 

Meverik

Шкипер

Пост 28-Июн-2015 00:21 (спустя 7 дней)

[Q] 

Большое спасибо! Заценим!
[Профиль]  [ЛС] 

kugesan ®

56687

Пост 28-Июн-2015 12:58 (спустя 12 часов)

[Q] 

Приятного просмотра!!!

_________________

В мире две бесконечности: вселенная и человеческая глупость - Альберт Эйнштен
«Можно вытащить человека из грязи, но нельзя вытащить грязь из человека»!
[Профиль]  [ЛС] 
Показать сообщения:    
Ответить на тему

Текущее время: Сегодня 00:05

Часовой пояс: GMT + 4



Вы не можете начинать темы
Вы не можете отвечать на сообщения
Вы не можете редактировать свои сообщения
Вы не можете удалять свои сообщения
Вы не можете голосовать в опросах
Вы не можете прикреплять файлы к сообщениям
Вы не можете скачивать файлы

▼ Вниз