ML
     
  Уважаемый Гость!
Вы можете поддержать проект и зарегистрироваться у наших партнеров - онлайн-стратегия MyLands. При регистрации в игре Вы получите код, который сможете активировать после регистрации на pirat.ca и получить 1000 дублонов.

Ваш код:
ea554e7ed3eacceeae87a8b30a9de3f086c18a84
 
     

Следствие по телу / Body of Proof / Сезон: 1 / Серии: 1-9 (9) (Кристин Мур / Christine Moore, Нельсон МакКормик / Nelson McCormick) [2011 г., драма, криминал, детектив, WEB-DL, 720p] Dub (Первый Канал)

Ответить на тему
 
Автор
Сообщение

Пост 10-Мар-2014 11:00

[Q] 

TERMOS

Легенда

-Следствие по телу / Body of Proof
(1 сезон)
-- Производство: США
Жанр: драма, криминал, детектив
Год выпуска: 2011 г.
Продолжительность: 9 х ~00:43:00
Мировая премьера: 25 января 2011
Российская премьера: 7 февраля 2011
Перевод: Профессиональный (полное дублирование) [Первый Канал]
Режиссер: Кристин Мур / Christine Moore, Нельсон МакКормик / Nelson McCormick-В ролях: Дана Дилэйни, Николас Бишоп, Уинделл Миддлбрукс, Сюзанн Гиллис, Джеффри Аренд, Джон Кэрролл Линч, Джери Райан, Billy "V" Vigeant, Чак Славин, Филлис Линн-Описание: Когда ее карьера выдающегося нейрохирурга внезапно прервалась, доктор Меган Хант стала использовать свои блестящие знания в медицине для раскрытия преступлений. Каждый труп может многое рассказать, и доктор Хант обязательно все выяснит.
    Доктор Меган Хант была ведущим нейрохирургом, пока из-за автомобильной аварии ее карьера не оборвалась. И теперь, раз уж живым помочь она больше не в силах, она стала судмедэкспертом. И хотя свою работу она делает на отлично, репутация «сложного человека» преследует ее везде. Ее начальник пытается ее защищать, но она слишком часто наступает на больную мозоль. И хотя он, с ворчанием, все же признает ее медицинские способности, ее коллега, опытный детектив полиции Бад Моррис, вовсе не в восторге от методов Меган.
    К счастью, у доктора Хант все же есть несколько почитателей. Младшие судмедэксперты полагаются на ее опыт, а ее напарник, медицинский следователь Питер Данлэп, нормально воспринимает ее странное поведение. Может это потому, что он единственный, кто знает — сложность характера Хант частично вызвана чувством вины. Перед тем, как оставить нейрохирургию, Мэган случайно убила своего пациента. Прибавьте к этому тяжелый развод, в результате которого дочь-подросток осталась под опекунством отца, и вы получите рецепт одиночества. Что касается понимания мертвых, то тут доктору Хант нет равных. А вот в отношениях с живыми ей есть над чем работать.
- -Качество видео: WEB-DL
Контейнер: MKV
Стандарт разрешения: 720p
Видео кодек: H.264/AVC
Аудио кодек: AC3
Видео: 1280x720 at 23.976 fps, ~4000 kbps avg
Аудио: Russian: 48 kHz, AC3, 2/0 (L,R) ch, ~192.00 kbps avg |Дубляж, Первый Канал|
Аудио #2: English: 48 kHz, AC3, 3/2 (L,C,R,l,r) + LFE ch, ~384.00 kbps avg
Cубтитры: отсутствуют
01: Pilot / Пилотная серия
02: Letting Go / Отпуская
03: Helping Hand / Рука помощи
04: Talking Heads / Говоря словами
05: Dead Man Walking / Ходячий мертвец
06: Society Hill / Высшее общество
07: All in the Family / Все в семье
08: Buried Secrets / Похороненные секреты
09: Broken Home / Разбитый дом
Код:
General
Complete name                    : T:\Uploads\Pirat.Ca\Body of Proof - Season 01 (2011)[WEB-DL.720p]\Body.of.Proof.S01E01.720p.WEB-DL.Rus.Eng.NovaFilmTV.mkv
Format                           : Matroska
File size                        : 1.40 GiB
Duration                         : 43mn 25s
Overall bit rate                 : 4 627 Kbps
Encoded date                     : UTC 2011-03-31 21:29:01
Writing application              : mkvmerge v4.6.0 ('Still Crazy After All These Years') сборка от Mar 10 2011 02:50:32
Writing library                  : libebml v1.2.0 + libmatroska v1.1.0
Video
ID                               : 1
Format                           : AVC
Format/Info                      : Advanced Video Codec
Format profile                   : [email protected]
Format settings, CABAC           : No
Format settings, ReFrames        : 2 frames
Muxing mode                      : Container [email protected]
Codec ID                         : V_MPEG4/ISO/AVC
Duration                         : 43mn 25s
Bit rate mode                    : Variable
Bit rate                         : 3 959 Kbps
Width                            : 1 280 pixels
Height                           : 720 pixels
Display aspect ratio             : 16:9
Frame rate                       : 23.976 fps
Color space                      : YUV
Chroma subsampling               : 4:2:0
Bit depth                        : 8 bits
Scan type                        : Progressive
Bits/(Pixel*Frame)               : 0.179
Stream size                      : 1.20 GiB (86%)
Title                            : Body of Proof - Season 1, Episode 1: Pilot
Language                         : English
Color primaries                  : BT.709-5, BT.1361, IEC 61966-2-4, SMPTE RP177
Transfer characteristics         : BT.709-5, BT.1361
Matrix coefficients              : BT.709-5, BT.1361, IEC 61966-2-4 709, SMPTE RP177
Audio #1
ID                               : 2
Format                           : AC-3
Format/Info                      : Audio Coding 3
Mode extension                   : CM (complete main)
Codec ID                         : A_AC3
Duration                         : 43mn 25s
Bit rate mode                    : Constant
Bit rate                         : 192 Kbps
Channel(s)                       : 2 channels
Channel positions                : Front: L R
Sampling rate                    : 48.0 KHz
Bit depth                        : 16 bits
Stream size                      : 59.6 MiB (4%)
Title                            : Dolby Digital 2.0 @ 192 kbps
Language                         : Russian
Audio #2
ID                               : 3
Format                           : AC-3
Format/Info                      : Audio Coding 3
Mode extension                   : CM (complete main)
Codec ID                         : A_AC3
Duration                         : 43mn 25s
Bit rate mode                    : Constant
Bit rate                         : 384 Kbps
Channel(s)                       : 6 channels
Channel positions                : Front: L C R, Side: L R, LFE
Sampling rate                    : 48.0 KHz
Bit depth                        : 16 bits
Stream size                      : 119 MiB (8%)
Title                            : Dolby Digital 5.1 @ 384 kbps
Language                         : English
Download / Скачать

Хотите скачать бесплатно? Зарегистрируйтесь на сайте (ссылка на регистрацию). Pirat.ca - самый быстрый торрент трекер в рунете!

Как скачивать  ·   Что такое торрент  ·   Рейтинг и ограничения

Пост 10-Мар-2014 12:55 (спустя 1 час 54 минуты)

Топик был перенесен из форума Зарубежные сериалы (Трюм) в форум Зарубежные сериалы
kugesan
 
Показать сообщения:    
Ответить на тему

Текущее время: Сегодня 12:08

Часовой пояс: GMT + 4



Вы не можете начинать темы
Вы не можете отвечать на сообщения
Вы не можете редактировать свои сообщения
Вы не можете удалять свои сообщения
Вы не можете голосовать в опросах
Вы не можете прикреплять файлы к сообщениям
Вы не можете скачивать файлы

▼ Вниз