ML
     
  Уважаемый Гость!
Вы можете поддержать проект и зарегистрироваться у наших партнеров - онлайн-стратегия MyLands. При регистрации в игре Вы получите код, который сможете активировать после регистрации на pirat.ca и получить 1000 дублонов.

Ваш код:
b70663c760e7cd2521b8e123786cdd788200e3bd
 
     

Следствие по телу / Body of Proof / Сезон: 2 / Серии: 1-20 (20) (Кристин Мур / Christine Moore, Нельсон МакКормик / Nelson McCormick) [2011 г., драма, криминал, детектив, WEB-DL, 720p] Dub (Fox Life) + Original (Eng)

Ответить на тему
 
Автор
Сообщение

Пост 10-Мар-2014 12:02

[Q] 

TERMOS

Легенда

-Следствие по телу / Body of Proof
(2 сезон)
-- Производство: США
Жанр: драма, криминал, детектив
Год выпуска: 2011 г.
Продолжительность: 20 х ~00:43:00
Мировая премьера: 25 января 2011
Российская премьера: 7 февраля 2011
Перевод: Профессиональный (полное дублирование) [Fox Life]
Оригинальный аудиопоток: английский
Режиссер: Кристин Мур / Christine Moore, Нельсон МакКормик / Nelson McCormick-В ролях: Дана Дилэйни, Николас Бишоп, Уинделл Миддлбрукс, Сюзанн Гиллис, Джеффри Аренд, Джон Кэрролл Линч, Джери Райан, Billy "V" Vigeant, Чак Славин, Филлис Линн-Описание: Когда ее карьера выдающегося нейрохирурга внезапно прервалась, доктор Меган Хант стала использовать свои блестящие знания в медицине для раскрытия преступлений. Каждый труп может многое рассказать, и доктор Хант обязательно все выяснит.
    Доктор Меган Хант была ведущим нейрохирургом, пока из-за автомобильной аварии ее карьера не оборвалась. И теперь, раз уж живым помочь она больше не в силах, она стала судмедэкспертом. И хотя свою работу она делает на отлично, репутация «сложного человека» преследует ее везде. Ее начальник пытается ее защищать, но она слишком часто наступает на больную мозоль. И хотя он, с ворчанием, все же признает ее медицинские способности, ее коллега, опытный детектив полиции Бад Моррис, вовсе не в восторге от методов Меган.
    К счастью, у доктора Хант все же есть несколько почитателей. Младшие судмедэксперты полагаются на ее опыт, а ее напарник, медицинский следователь Питер Данлэп, нормально воспринимает ее странное поведение. Может это потому, что он единственный, кто знает — сложность характера Хант частично вызвана чувством вины. Перед тем, как оставить нейрохирургию, Мэган случайно убила своего пациента. Прибавьте к этому тяжелый развод, в результате которого дочь-подросток осталась под опекунством отца, и вы получите рецепт одиночества. Что касается понимания мертвых, то тут доктору Хант нет равных. А вот в отношениях с живыми ей есть над чем работать.
- -Качество видео: WEB-DL
Контейнер: MKV
Стандарт разрешения: 720p
Видео кодек: H.264/AVC
Аудио кодек: AC3
Видео: 1280x720 at 25.000 fps, ~4000 kbps avg
Аудио: Russian: 48 kHz, AC3, 2/0 (L,R) ch, ~192.00 kbps avg |Дубляж, Fox Life|
Аудио #2: English: 48 kHz, AC3, 3/2 (L,C,R,l,r) + LFE ch, ~384.00 kbps avg
Cубтитры: отсутствуют
1. «Love Thy Neighbor / Возлюби соседа своего»
2. «Hunting Party / Охота»
3. «Missing / Похищение» (серия 1 сезона, показанная в России и Европе под номером 12, перенесенная каналом ABC на 2 сезон)
4. «Lazarus Man / Восставший из мертвых»
5. «Point Of Origin / Пункт отправления» (серия 1 сезона, показанная в России и Европе под номером 9, перенесенная каналом ABC на 2 сезон)
6. «Second Chances / Второй шанс» (серия 1 сезона, показанная в России и Европе под номером 11, перенесенная каналом ABC на 2 сезон)
7. «Hard Knocks / Жестокий удар» (серия 1 сезона, показанная в России и Европе под номером 13, перенесенная каналом ABC на 2 сезон)
8. «Love Bites / Укусы любви»
9. «Gross Anatomy / Наглядная анатомия»
10. «Your Number's Up / Твой счастливый номер»
11. «Falling For You / Пока смерть не разлучит вас»
12. «Shades of Blue / Оттенки синего»
13. «Sympathy For the Devil / Симпатия к дьяволу»
14. «Going Viral / Блуждающий вирус»
15. «Occupational Hazards / Профессиональные риски»
16. «Home Invasion / Посягательство на дом»
17. «Identity / Идентичность»
18. Going Viral, Part 1 / Блуждающий вирус. Часть 1
19. Going Viral, Part 2 / Блуждающий вирус. Часть 2
20. Mind Games / Игры разума
Код:
General
Complete name                    : T:\Uploads\Pirat.Ca\Body of Proof - Season 02 (2011)[WEB-DL.720p]\Body.of.Proof.S02E01.720p.WEB-DL.Rus.Eng.NovaFilmTV.mkv
Format                           : Matroska
File size                        : 1.36 GiB
Duration                         : 41mn 26s
Overall bit rate                 : 4 685 Kbps
Encoded date                     : UTC 2011-12-06 21:06:40
Writing application              : mkvmerge v5.1.0 ('And so it goes') built on Nov 28 2011 23:58:28
Writing library                  : libebml v1.2.3 + libmatroska v1.3.0
Video
ID                               : 1
Format                           : AVC
Format/Info                      : Advanced Video Codec
Format profile                   : [email protected]
Format settings, CABAC           : No
Format settings, ReFrames        : 2 frames
Muxing mode                      : Container [email protected]
Codec ID                         : V_MPEG4/ISO/AVC
Duration                         : 41mn 26s
Bit rate mode                    : Variable
Bit rate                         : 4 016 Kbps
Width                            : 1 280 pixels
Height                           : 720 pixels
Display aspect ratio             : 16:9
Frame rate                       : 25.000 fps
Color space                      : YUV
Chroma subsampling               : 4:2:0
Bit depth                        : 8 bits
Scan type                        : Progressive
Bits/(Pixel*Frame)               : 0.174
Stream size                      : 1.16 GiB (86%)
Title                            : Body of Proof - Season 2, Episode 1: Love Thy Neighbor
Language                         : English
Color primaries                  : BT.709-5, BT.1361, IEC 61966-2-4, SMPTE RP177
Transfer characteristics         : BT.709-5, BT.1361
Matrix coefficients              : BT.709-5, BT.1361, IEC 61966-2-4 709, SMPTE RP177
Audio #1
ID                               : 2
Format                           : AC-3
Format/Info                      : Audio Coding 3
Mode extension                   : CM (complete main)
Codec ID                         : A_AC3
Duration                         : 41mn 26s
Bit rate mode                    : Constant
Bit rate                         : 192 Kbps
Channel(s)                       : 2 channels
Channel positions                : Front: L R
Sampling rate                    : 48.0 KHz
Bit depth                        : 16 bits
Stream size                      : 56.9 MiB (4%)
Title                            : Dolby Digital 2.0 @ 192 kbps
Language                         : Russian
Audio #2
ID                               : 3
Format                           : AC-3
Format/Info                      : Audio Coding 3
Mode extension                   : CM (complete main)
Codec ID                         : A_AC3
Duration                         : 41mn 26s
Bit rate mode                    : Constant
Bit rate                         : 384 Kbps
Channel(s)                       : 6 channels
Channel positions                : Front: L C R, Side: L R, LFE
Sampling rate                    : 48.0 KHz
Bit depth                        : 16 bits
Stream size                      : 114 MiB (8%)
Title                            : Dolby Digital 5.1 @ 384 kbps
Language                         : English
Download / Скачать

Хотите скачать бесплатно? Зарегистрируйтесь на сайте (ссылка на регистрацию). Pirat.ca - самый быстрый торрент трекер в рунете!

Как скачивать  ·   Что такое торрент  ·   Рейтинг и ограничения

Пост 10-Мар-2014 12:47 (спустя 45 минут)

Топик был перенесен из форума Зарубежные сериалы (Трюм) в форум Зарубежные сериалы
kugesan
 
Показать сообщения:    
Ответить на тему

Текущее время: Сегодня 00:19

Часовой пояс: GMT + 4



Вы не можете начинать темы
Вы не можете отвечать на сообщения
Вы не можете редактировать свои сообщения
Вы не можете удалять свои сообщения
Вы не можете голосовать в опросах
Вы не можете прикреплять файлы к сообщениям
Вы не можете скачивать файлы

▼ Вниз