ML
     
  Уважаемый Гость!
Вы можете поддержать проект и зарегистрироваться у наших партнеров - онлайн-стратегия MyLands. При регистрации в игре Вы получите код, который сможете активировать после регистрации на pirat.ca и получить 1000 дублонов.

Ваш код:
cc3be08b7507661c03e0a2f582d0da3a659ea55a
 
     

От заката до рассвета / From Dusk Till Dawns / Сезон: 1 / полный / Серии: 10 из 10 (Роберт Родригес / Robert Rodriguez ...) [2014 г., ужасы, боевик, криминал, ..., WEB-DLRip] MVO (NewStudio) + Original (Eng)

Ответить на тему
 
Автор
Сообщение

Пост 14-Мар-2014 12:07

[Q] 

kugesan

-От заката до рассвета / From Dusk Till Dawn-- Производство: США
Жанр: ужасы, боевик, криминал, ...
Год выпуска: 2014 г.-Мировая премьера: 11 марта 2014-Озвучка: Студия |NewStudio|
Перевод: Многоголосый закадровый, профессиональный
Оригинальный аудиопоток: английский-Автор перевода: Александра Цернант
Постер: Андрей Шапал-Режиссер: Роберт Родригес / Robert Rodriguez, Джо Менендес / Joe Menendez, Эдуардо Санчес / Eduardo Sánchez, ...-В ролях: Д.Дж. Котрона, Зейн Холц, Роберт Патрик, Мэдисон Девенпорт, Брэндон Су Ху, Эйса Гонсалес, Джейк Бьюзи, Саманта Бекер, Сэнди Гарса ...-Описание:
Сет Гекко, грабитель банков, и его не совсем психически стабильный братец Ричард находятся в розыске. Разыскивают их не только ФБР, но и техасские законники — шериф МакГроу и рейнджер Гонсалес, которые утраивают усилия после того, как после очередного ограбления, устроенного братьями Гекко, в банке остается несколько трупов. Пытаясь удрать в Мексику, Гекко сталкиваются с бывшим священником Джейкобом Фуллером и его семьей, которых берут в заложники и в их же трейлере отправляются к мексиканской границе. Заехав в небольшой стрип-клуб по дороге, они неудачно знакомятся с целой прорвой жаждущих крови вампиров и пытаются хотя бы дожить до рассвета, не говоря уже о том, чтобы истребить как можно больше чудовищ.-Сезон: 1
Серии: 10 из 10 серий
Продолжительность: ~ 00:44:00 мин серия-Качество видео: WEB-DLRip
Контейнер: AVI
Видео кодек: XviD
Аудио кодек: MP3
Видео: MPEG-4 Visual at 1460 Кбит/сек: 720 x 400 (1.800) at 23.976 fps: 0.21 Бит/Пиксели
Аудио Rus: MPEG Audio at 128 Кбит/сек, 2 канала, 48,0 КГц |NewStudio|
Аудио Eng: MPEG Audio at 128 Кбит/сек, 2 канала, 48,0 КГц |Original|
Cубтитры: отсутствуют
- -
  • Пилот (Pilot)
  • Кровные узы (Blood Runs Thick)
  • Госпожа (Mistress)
  • В дорогу (Let's Get Ramblin')
  • Самодостаточность (Self-Contained)
  • Место Мертвых Дорог (Place of Dead Roads)
  • Адское логово (Pandemonium)
  • Покорение (La Conquista) - Proper
  • Медвежатник (Boxman)
  • Добыча (The Take)
-
Код:
Общее
Полное имя                               : E:\_Сериалы\000\От заката до рассвета\From Dusk Till Dawn-1(NewStudio)\From.Dusk.Till.Dawn.s01e01.WEBDLRip.NewStudio.TV.avi
Формат                                   : AVI
Формат/Информация                        : Audio Video Interleave
Размер файла                             : 550 Мбайт
Продолжительность                        : 44 м.
Общий поток                              : 1730 Кбит/сек
Программа кодирования                    : VirtualDubMod 1.5.10.2 (build 2540/release)
Библиотека кодирования                   : VirtualDubMod build 2540/release
Видео
Идентификатор                            : 0
Формат                                   : MPEG-4 Visual
Профиль формата                          : Advanced [email protected]
Параметр BVOP формата                    : 2
Параметр QPel формата                    : Нет
Параметр GMC формата                     : Без точки перехода
Параметр матрицы формата                 : Default (MPEG)
Идентификатор кодека                     : XVID
Идентификатор кодека/Подсказка           : XviD
Продолжительность                        : 44 м.
Битрейт                                  : 1460 Кбит/сек
Ширина                                   : 720 пикселей
Высота                                   : 400 пикселей
Соотношение сторон                       : 16:9
Частота кадров                           : 23,976 кадра/сек
Цветовое пространство                    : YUV
Субдискретизация насыщенности            : 4:2:0
Битовая глубина                          : 8 бит
Тип развёртки                            : Прогрессивная
Метод сжатия                             : С потерями
Бит/(Пиксели*Кадры)                      : 0.211
Размер потока                            : 464 Мбайт (84%)
Библиотека кодирования                   : XviD 64
Аудио #1
Идентификатор                            : 1
Формат                                   : MPEG Audio
Версия формата                           : Version 1
Профиль формата                          : Layer 3
Режим                                    : Joint stereo
Расширение режима                        : MS Stereo
Идентификатор кодека                     : 55
Идентификатор кодека/Подсказка           : MP3
Продолжительность                        : 44 м.
Вид битрейта                             : Постоянный
Битрейт                                  : 128 Кбит/сек
Каналы                                   : 2 канала
Частота                                  : 48,0 КГц
Метод сжатия                             : С потерями
Размер потока                            : 40,7 Мбайт (7%)
Выравнивание                             : Соединение по промежуткам
Продолжительность промежутка             : 42  мс. (1,00 видеокадр)
Время предзагрузки промежутка            : 504  мс.
Аудио #2
Идентификатор                            : 2
Формат                                   : MPEG Audio
Версия формата                           : Version 1
Профиль формата                          : Layer 3
Режим                                    : Joint stereo
Идентификатор кодека                     : 55
Идентификатор кодека/Подсказка           : MP3
Продолжительность                        : 44 м.
Вид битрейта                             : Постоянный
Битрейт                                  : 128 Кбит/сек
Каналы                                   : 2 канала
Частота                                  : 48,0 КГц
Метод сжатия                             : С потерями
Размер потока                            : 40,7 Мбайт (7%)
Выравнивание                             : Соединение по промежуткам
Продолжительность промежутка             : 42  мс. (1,00 видеокадр)
Время предзагрузки промежутка            : 504  мс.
Библиотека кодирования                   : LAME3.99r
Настройки программы                      : -m j -V 4 -q 2 -lowpass 17 -b 128
-
-
-
-Добавлена десятая, заключительная, серия первого сезона
Download / Скачать

Хотите скачать бесплатно? Зарегистрируйтесь на сайте (ссылка на регистрацию). Pirat.ca - самый быстрый торрент трекер в рунете!

Как скачивать  ·   Что такое торрент  ·   Рейтинг и ограничения



Последний раз редактировалось: kugesan (2015-08-31 22:04), всего редактировалось 14 раз(а)

Bozo

Флибустьер

Пост 14-Мар-2014 18:53 (спустя 6 часов)

[Q] 

сериал, хм, глянем ради интереса
[Профиль]  [ЛС] 

kugesan ®

56710

Пост 14-Мар-2014 19:09 (спустя 16 минут)

[Q] 

Bozo, Приятного просмотра!!!

_________________

В мире две бесконечности: вселенная и человеческая глупость - Альберт Эйнштен
«Можно вытащить человека из грязи, но нельзя вытащить грязь из человека»!
[Профиль]  [ЛС] 

Doctor-ZLO

Гроза морей

438

Пост 14-Мар-2014 20:29 (спустя 1 час 19 минут)

[Q] 

балин,трейлер не очень..Все таки фильм рулит!!! Раздающему респект!

_________________
[Профиль]  [ЛС] 

Bozo

Флибустьер

Пост 23-Мар-2014 11:03 (спустя 8 дней)

[Q] 

что-то как-то не похоже на Родригеса чесслово, надо еще пару серий глянуть, пока не особо
[Профиль]  [ЛС] 

DocSoft

Гроза морей

71

Пост 30-Мар-2014 05:39 (спустя 6 дней)

[Q] 

Такс посмотрим ) Может и потянет, Родригеса вижу - значит всё ок должно быть. Но если нет то будет ещё одна рицензия на кинопоиске ))

_________________
Всего одна Любовь !
[Профиль]  [ЛС] 

Денчик

1942

Пост 14-Апр-2014 00:32 (спустя 14 дней)

[Q] 

сколько серий всего будет никто не в курсе???
Добавлено спустя 32 секунды:
а сори 10 чет туплю малек

_________________
[Профиль]  [ЛС] 

ak_132

Флибустьер

Пост 14-Апр-2014 18:38 (спустя 18 часов)

[Q] 

Ну и как, глянули? Стоит смотреть?
[Профиль]  [ЛС] 

kugesan ®

56710

Пост 14-Апр-2014 18:40 (спустя 1 минута)

[Q] 

Ни че так, смотреть можно)))

_________________

В мире две бесконечности: вселенная и человеческая глупость - Альберт Эйнштен
«Можно вытащить человека из грязи, но нельзя вытащить грязь из человека»!
[Профиль]  [ЛС] 

Vanek2012

Морской Волк

Пост 17-Апр-2014 00:34 (спустя 2 дня 5 часов)

[Q] 

Зачем Родригес это снял((( отстой самый настоящий, и сразу видно что дальше лучше не будет,но все равно посмотрю ради интереса
[Профиль]  [ЛС] 

kugesan ®

56710

Пост 24-Май-2014 23:37 (спустя 1 месяц 7 дней)

[Q] 

Добавлена десятая, заключительная, серия первого сезона

_________________

В мире две бесконечности: вселенная и человеческая глупость - Альберт Эйнштен
«Можно вытащить человека из грязи, но нельзя вытащить грязь из человека»!
[Профиль]  [ЛС] 

WhyNA

Шкипер

Пост 04-Сен-2015 14:57 (спустя 1 год 3 месяца)

[Q] 

Помнится фильм был хорош, для своего времени, посмотрим что в сериале наснимали

_________________
И когда он снял вторую печать, я слышал второе животное, говорящее: иди и смотри. И вышел другой конь, рыжий; и сидящему на нем дано взять мир с земли, и чтобы убивали друг друга; и дан ему большой меч.
(Откр.6:3-4)
[Профиль]  [ЛС] 

karnash

Шкипер

Пост 11-Сен-2015 20:04 (спустя 7 дней)

[Q] 

чем от фильма отличается?

_________________
курить вредно, пить противно, а умирать здоровым жалко...
[Профиль]  [ЛС] 
Показать сообщения:    
Ответить на тему

Текущее время: Сегодня 05:04

Часовой пояс: GMT + 4



Вы не можете начинать темы
Вы не можете отвечать на сообщения
Вы не можете редактировать свои сообщения
Вы не можете удалять свои сообщения
Вы не можете голосовать в опросах
Вы не можете прикреплять файлы к сообщениям
Вы не можете скачивать файлы

▼ Вниз