ML
     
  Уважаемый Гость!
Вы можете поддержать проект и зарегистрироваться у наших партнеров - онлайн-стратегия MyLands. При регистрации в игре Вы получите код, который сможете активировать после регистрации на pirat.ca и получить 1000 дублонов.

Ваш код:
b70663c760e7cd2521b8e123786cdd788200e3bd
 
     

Клондайк / Klondike / Сезон: 1 / Серии: 1-6 (Саймон Селлан Джоунс / Simon Cellan Jones) [2014 г., драма, приключения, WEB-DL, 1080p] MVO (AlexFilm)

Ответить на тему
 
Автор
Сообщение

Пост 14-Мар-2014 16:04

[Q] 

vasilich619

Флибустьер

-Клондайк / Klondike -- Производство: США, Канада
Жанр: драма, приключения
Год выпуска: 2014 г.
Продолжительность: 3 x ~ 01:35:54
Мировая премьера: 20 января 2014
Российская премьера: 6 марта 2014
Перевод: Профессиональный (многоголосый, закадровый) [AlexFilm]
Режиссер: Саймон Селлан Джоунс / Simon Cellan Jones-В ролях: Эбби Корниш, Иэн Харт, Конор Лесли, Ричард Мэдден., Тим Рот, Тим Блэйк Нельсон, Джонни Симмонс, Сэм Шепард, Август Прю, Грег Лосон...-Описание: В центре сюжета — история шестерых золотоискателей, которые встречаются в долине реки Юкон во времена Золотой лихорадки. Им предстоит выжить в суровых северных краях, куда отправлялись самые отчаянные авантюристы.-
Качество видео: WEB-DL
Контейнер: MP4
Стандарт разрешения: 1080p
Видео кодек: H.264
Аудио кодек: AAC
Видео: AVC, 1920x1080 (16:9), 25.000 fps, 5 712 Kbps (0.110 bit/pixel)
Аудио: Русский, AAC LC, 48.0 KHz, 6 ch, 456 Kbps, VBR - (AlexFilm)
Cубтитры: отсутствуют
General
Complete name : D:\ЗАРУБЕЖНОЕ\WEB-DL\Клондайк\klondike_s01_2014_web-dlrip_1080p\KLONDIKE_2014_1-2.mp4
Format : MPEG-4
Format profile : Base Media
Codec ID : isom
File size : 4.14 GiB
Duration : 1h 35mn
Overall bit rate : 6 174 Kbps
Encoded date : UTC 2014-02-05 16:34:13
Tagged date : UTC 2014-02-05 16:34:13
Writing application : Lavf51.12.1
Video
ID : 1
Format : AVC
Format/Info : Advanced Video Codec
Format profile : [email protected]
Format settings, CABAC : No
Format settings, ReFrames : 1 frame
Codec ID : avc1
Codec ID/Info : Advanced Video Coding
Duration : 1h 35mn
Bit rate mode : Variable
Bit rate : 5 712 Kbps
Width : 1 920 pixels
Height : 1 080 pixels
Display aspect ratio : 16/9
Frame rate mode : Constant
Frame rate : 25.000 fps
Original frame rate : 24.000 fps
Resolution : 24 bits
Colorimetry : 4:2:0
Scan type : Progressive
Bits/(Pixel*Frame) : 0.110
Stream size : 3.83 GiB (93%)
Language : English
Encoded date : UTC 2014-02-05 16:34:13
Tagged date : UTC 2014-02-05 16:34:13
Audio
ID : 2
Format : AAC
Format/Info : Advanced Audio Codec
Format version : Version 4
Format profile : LC
Format settings, SBR : No
Codec ID : 40
Duration : 1h 35mn
Bit rate mode : Variable
Bit rate : 456 Kbps
Channel(s) : 6 channels
Channel positions : Front: L C R, Rear: L R, LFE
Sampling rate : 48.0 KHz
Resolution : 16 bits
Stream size : 313 MiB (7%)
Language : Russian
Encoded date : UTC 2014-02-05 16:34:13
Tagged date : UTC 2014-02-05 16:34:13
Download / Скачать

Хотите скачать бесплатно? Зарегистрируйтесь на сайте (ссылка на регистрацию). Pirat.ca - самый быстрый торрент трекер в рунете!

Как скачивать  ·   Что такое торрент  ·   Рейтинг и ограничения

Пост 14-Мар-2014 17:05 (спустя 1 час)

Топик был перенесен из форума Зарубежные сериалы (Трюм) в форум Зарубежные сериалы
kugesan
 

Barmaluga

Штурман

Пост 30-Май-2014 22:38 (спустя 2 месяца 16 дней)

[Q] 

Доброго времени суток! Даешь "Клондайк?"
[Профиль]  [ЛС] 
Показать сообщения:    
Ответить на тему

Текущее время: Сегодня 00:22

Часовой пояс: GMT + 4



Вы не можете начинать темы
Вы не можете отвечать на сообщения
Вы не можете редактировать свои сообщения
Вы не можете удалять свои сообщения
Вы не можете голосовать в опросах
Вы не можете прикреплять файлы к сообщениям
Вы не можете скачивать файлы

▼ Вниз