ML
     
  Уважаемый Гость!
Вы можете поддержать проект и зарегистрироваться у наших партнеров - онлайн-стратегия MyLands. При регистрации в игре Вы получите код, который сможете активировать после регистрации на pirat.ca и получить 1000 дублонов.

Ваш код:
e6008d9811a0b6a1393c3dc51ecd7bc35637bc21
 
     

Ганнибал / Hannibal / Сезон: 1 / полный / 13 серий (Тим Хантер / Bryan Fuller ...) [2014 г., боевик, драма, военный, история, ..., WEB-DLRip] MVO (Sony Sci Fi) + Original (Eng)

Ответить на тему
 
Автор
Сообщение

Пост 18-Мар-2014 12:53

[Q] 

kugesan

-Ганнибал / Hannibal
«Как всё начиналось...»
-- Производство: Ирландия, Канада
Жанр: боевик, драма, военный, история, ...
Год выпуска: 2014 г.-Мировая премьера: 4 апреля 2013, ...
Российская премьера:13 апреля 2013-Подготовка релиза: Студия |NewStudio|
Перевод: Профессиональный (многоголосый, закадровый)
Оригинальный аудиопоток: английский-Озвучка: Sony Sci Fi
Подготовка видео: Baggio
Работа со звуком: Baggio
Постер: Vortex-Режиссер: Тим Хантер / Bryan Fuller, Майкл Раймер / Thomas Harris, Дэвид Слэйд / Steve Lightfoot , ...-В ролях: Мадс Миккельсен, Хью Дэнси, Каролин Давернас, Лара Жан Чоростецки, Аарон Абрамс, Лоренс Фишбёрн, Эттьенн Парк, Скотт Томпсон, Торианна Ли, Демор Барнс и др.-Описание:
Уилл Грэхэм — одаренный профайлер, который вместе с ФБР разыскивает серийного убийцу. Уникальный способ мышления Грэма дает ему удивительную способность глубоко проникаться чувствами другого человека, даже психопата. Он может понять, что ими движет. Но когда ум преследуемого убийцы оказывается слишком сложным, он прибегает к помощи доктора Лектера, одного из ведущих психиатрических умов в стране-Сезон: 1
Серии: 13 из 13 серий
Продолжительность: ~ 00:42:00 мин серия-Качество видео: WEB-DLRip
Контейнер: AVI
Видео кодек: XviD
Аудио кодек: MP3
Видео: MPEG-4 Visual at 1357 Кбит/сек: 720 x 400 (1.800) at 23.976 fps: 0.20 Бит/Пиксели
Аудио Rus: MPEG Audio at 128 Кбит/сек, 2 канала, 48,0 КГц |Sony Sci Fi|
Аудио Eng: MPEG Audio at 128 Кбит/сек, 2 канала, 48,0 КГц |Original|
Cубтитры: отсутствуют
- -Сериал "Ганнибал / Hannibal " на треке Pirat.ca-
  • Аперитив (Apéritif)
  • Легкая закуска (Amuse-Bouche)
  • Потаж (Potage)
  • Яйцо (Œuf)
  • Ракушки (Coquilles)
  • Блюдо (Entrée)
  • Сорбе (Sorbet)
  • Сыр (Fromage)
  • Нормандская дыра (Trou Normand)
  • Холодные закуски (Buffet Froid)
  • Жаркое (Rôti)
  • Выписки (Relevés)
  • Вкусно (Savoureux)
Код:
Общее
Полное имя                               : E:\uTorDown\uTorrent\Hannibal.s01.WEBDLRip.NewStudio.TV\Hannibal.s01e01.WEBDLRip.NewStudio.TV.avi
Формат                                   : AVI
Формат/Информация                        : Audio Video Interleave
Размер файла                             : 500 Мбайт
Продолжительность                        : 42 м.
Общий поток                              : 1627 Кбит/сек
Программа кодирования                    : VirtualDubMod 1.5.10.2 (build 2540/release)
Библиотека кодирования                   : VirtualDubMod build 2540/release
Видео
Идентификатор                            : 0
Формат                                   : MPEG-4 Visual
Профиль формата                          : Advanced [email protected]
Параметр BVOP формата                    : 2
Параметр QPel формата                    : Нет
Параметр GMC формата                     : Без точки перехода
Параметр матрицы формата                 : Default (MPEG)
Идентификатор кодека                     : XVID
Идентификатор кодека/Подсказка           : XviD
Продолжительность                        : 42 м.
Битрейт                                  : 1357 Кбит/сек
Ширина                                   : 720 пикселей
Высота                                   : 400 пикселей
Соотношение сторон                       : 16:9
Частота кадров                           : 23,976 кадра/сек
Цветовое пространство                    : YUV
Субдискретизация насыщенности            : 4:2:0
Битовая глубина                          : 8 бит
Тип развёртки                            : Прогрессивная
Метод сжатия                             : С потерями
Бит/(Пиксели*Кадры)                      : 0.197
Размер потока                            : 417 Мбайт (83%)
Библиотека кодирования                   : XviD 64
Аудио #1
Идентификатор                            : 1
Формат                                   : MPEG Audio
Версия формата                           : Version 1
Профиль формата                          : Layer 3
Режим                                    : Joint stereo
Расширение режима                        : MS Stereo
Идентификатор кодека                     : 55
Идентификатор кодека/Подсказка           : MP3
Продолжительность                        : 42 м.
Вид битрейта                             : Постоянный
Битрейт                                  : 128 Кбит/сек
Каналы                                   : 2 канала
Частота                                  : 48,0 КГц
Метод сжатия                             : С потерями
Размер потока                            : 39,3 Мбайт (8%)
Выравнивание                             : Соединение по промежуткам
Продолжительность промежутка             : 42  мс. (1,00 видеокадр)
Время предзагрузки промежутка            : 504  мс.
Аудио #2
Идентификатор                            : 2
Формат                                   : MPEG Audio
Версия формата                           : Version 1
Профиль формата                          : Layer 3
Режим                                    : Joint stereo
Расширение режима                        : MS Stereo
Идентификатор кодека                     : 55
Идентификатор кодека/Подсказка           : MP3
Продолжительность                        : 42 м.
Вид битрейта                             : Постоянный
Битрейт                                  : 128 Кбит/сек
Каналы                                   : 2 канала
Частота                                  : 48,0 КГц
Метод сжатия                             : С потерями
Размер потока                            : 39,3 Мбайт (8%)
Выравнивание                             : Соединение по промежуткам
Продолжительность промежутка             : 42  мс. (1,00 видеокадр)
Время предзагрузки промежутка            : 504  мс.
-Первый сезон
Download / Скачать

Хотите скачать бесплатно? Зарегистрируйтесь на сайте (ссылка на регистрацию). Pirat.ca - самый быстрый торрент трекер в рунете!

Как скачивать  ·   Что такое торрент  ·   Рейтинг и ограничения



Последний раз редактировалось: kugesan (2015-03-03 13:58), всего редактировалось 2 раз(а)

Bozo

Флибустьер

Пост 18-Мар-2014 14:42 (спустя 1 час 48 минут)

[Q] 

беру, спасибо )
[Профиль]  [ЛС] 

Bozo

Флибустьер

Пост 18-Мар-2014 18:51 (спустя 4 часа)

[Q] 

раздайте, плиз )
[Профиль]  [ЛС] 

Slash

Морской Волк

Пост 21-Мар-2014 19:22 (спустя 3 дня)

[Q] 

Лучший перевод! Всем качать!!!
[Профиль]  [ЛС] 

Bozo

Флибустьер

Пост 10-Апр-2014 23:36 (спустя 20 дней)

[Q] 

что-то я не проникся, не захватил сериал
[Профиль]  [ЛС] 

vsech

Лоцман

Пост 08-Апр-2015 08:10 (спустя 11 месяцев 27 дней)

[Q] 

дайте раздачу плиз!
[Профиль]  [ЛС] 

Maniac93

Корсар

Пост 07-Июн-2015 18:34 (спустя 1 месяц 29 дней)

[Q] 

говорят хороший сериал, посмотрим-с что да как! спасибо за раздачу! Лови бочку
[Профиль]  [ЛС] 
Показать сообщения:    
Ответить на тему

Текущее время: Сегодня 01:59

Часовой пояс: GMT + 4



Вы не можете начинать темы
Вы не можете отвечать на сообщения
Вы не можете редактировать свои сообщения
Вы не можете удалять свои сообщения
Вы не можете голосовать в опросах
Вы не можете прикреплять файлы к сообщениям
Вы не можете скачивать файлы

▼ Вниз