ML
     
  Уважаемый Гость!
Вы можете поддержать проект и зарегистрироваться у наших партнеров - онлайн-стратегия MyLands. При регистрации в игре Вы получите код, который сможете активировать после регистрации на pirat.ca и получить 1000 дублонов.

Ваш код:
ba41f7961e0b4717aed6a401d955262223b8f6c4
 
     

Возмездие / Revenge / Сезон: 2 / Серии: 1-22 (Мэтт Эрл Бисли / Matt Earl Beesley, ...) [2011 г., мелодрама, детектив, триллер, WEB-DLRip (NewStudio) + Original (Eng)

Ответить на тему
 
Автор
Сообщение

Пост 19-Мар-2014 19:25

[Q] 

Sesha13

Юнга

-Возмездие / Revenge-- Производство: США
Жанр: мелодрама, детектив, триллер
Год выпуска: 2011 г.
Продолжительность: 00:43:00
Мировая премьера: 21 сентября 2011
Российская премьера: 18 января 2012
Перевод: Профессиональный (двухголосый, закадровый) [NewStudio]
Режиссер: Мэтт Эрл Бисли / Matt Earl Beesley, Филлип Нойс / Phillip Noyce-В ролях: Макс Мартини, Мэдлин Стоу, Эмили ВанКэмпЮ, Гэбриел Манн, Генри Черни, Эшли Мадекве, Ник Уэкслер, Джошуа Боуман, Коннор Паоло, Криста Б. Аллен-Описание: Сериал «Возмездие» (Revenge) – история Эмили Торн (Эмили ВанКэмп), молодой женщины, прибывшей в новое для нее сообщество. Здесь живут люди, которые не знают, что главная цель новенькой – отомстить тем, кто когда-то стал причиной краха ее семьи.
Месть универсальна. Потребность в ней столь же повсеместна, как потребность в любви, сексе или утолении жгучего голода. Месть начинает войны, в которых не бывает победителей, и преследует целые поколения, разрушая их жизни кровной враждой. Месть также стара, как само человечество…
Эмили Торн хорошо принята в новом для себя месте проживания, богатом и благополучном Хэмптоне. Она не очень ориентируется в городской жизни, хотя и успела уже завести ряд знакомств среди богатых местных жителей. Кажется, что девушка постепенно обживается на новом месте, однако, есть в ней что-то странное, словно в действительности она и не так уж плохо знает своих соседей. На самом деле, героиня сериала «Месть» жила в Хэмптоне прежде, пока не произошло что-то плохое, то, что разрушило жизнь членов ее семьи и их репутацию. Теперь Эмили вернулась, и она намерена все исправить единственным способом, доступным ей – отомстить…- -Качество видео: WEB-DLRip
Контейнер: AVI
Видео кодек: XviD
Аудио кодек: MP3
Видео: 720x400 (1.80:1), 23.976 fps, XviD build 64 ~1509 kbps avg, 0.22 bit/pixel
Аудио Rus: 48 kHz, MPEG Layer 3, 2 ch, ~128.00 kbps avg
Аудио Eng: 48 kHz, MPEG Layer 3, 2 ch, ~128.00 kbps avg
Cубтитры: отсутствуют
Общее
Полное имя : D:\ФИЛЬМЫ\СЕРИАЛЫ\Возмездие\revenge.s02e03.webdl_NewStudio.TV[pirat.ca].avi
Формат : AVI
Формат/Информация : Audio Video Interleave
Размер файла : 550 Мбайт
Продолжительность : 43 м.
Режим общего битрейта : Переменный
Общий поток : 1783 Кбит/сек
Программа кодирования : VirtualDubMod 1.5.10.2 (build 2540/release)
Библиотека кодирования : VirtualDubMod build 2540/release
Видео
Идентификатор : 0
Формат : MPEG-4 Visual
Профиль формата : Advanced [email protected]
Параметр BVOP формата : 2
Параметр QPel формата : Нет
Параметр GMC формата : Без точки перехода
Параметр матрицы формата : Default (MPEG)
Идентификатор кодека : XVID
Идентификатор кодека/Подсказка : XviD
Продолжительность : 43 м.
Битрейт : 1511 Кбит/сек
Ширина : 720 пикселей
Высота : 400 пикселей
Соотношение сторон : 16:9
Частота кадров : 23,976 кадра/сек
Цветовое пространство : YUV
Субдискретизация насыщенности : 4:2:0
Битовая глубина : 8 бит
Тип развёртки : Прогрессивная
Метод сжатия : С потерями
Бит/(Пиксели*Кадры) : 0.219
Размер потока : 466 Мбайт (85%)
Библиотека кодирования : XviD 64
Аудио #1
Идентификатор : 1
Формат : MPEG Audio
Версия формата : Version 1
Профиль формата : Layer 3
Режим : Joint stereo
Расширение режима : MS Stereo
Идентификатор кодека : 55
Идентификатор кодека/Подсказка : MP3
Продолжительность : 43 м.
Вид битрейта : Постоянный
Битрейт : 128 Кбит/сек
Каналы : 2 канала
Частота : 48,0 КГц
Метод сжатия : С потерями
Размер потока : 39,5 Мбайт (7%)
Выравнивание : Соединение по промежуткам
Продолжительность промежутка : 42 мс. (1,00 видеокадр)
Время предзагрузки промежутка : 504 мс.
Аудио #2
Идентификатор : 2
Формат : MPEG Audio
Версия формата : Version 1
Профиль формата : Layer 3
Режим : Joint stereo
Расширение режима : MS Stereo
Идентификатор кодека : 55
Идентификатор кодека/Подсказка : MP3
Продолжительность : 43 м.
Вид битрейта : Переменный
Битрейт : 128 Кбит/сек
Каналы : 2 канала
Частота : 48,0 КГц
Метод сжатия : С потерями
Размер потока : 39,2 Мбайт (7%)
Выравнивание : Соединение по промежуткам
Продолжительность промежутка : 24 мс. (0,58 видеокадр)
Время предзагрузки промежутка : 465 мс.
Библиотека кодирования : LAME3.90.
Настройки программы : -m j -V 4 -q 2 -lowpass 17.6 --abr 128
Download / Скачать

Хотите скачать бесплатно? Зарегистрируйтесь на сайте (ссылка на регистрацию). Pirat.ca - самый быстрый торрент трекер в рунете!

Как скачивать  ·   Что такое торрент  ·   Рейтинг и ограничения



Последний раз редактировалось: Sesha13 (2014-03-22 20:04), всего редактировалось 2 раз(а)

kloctuk

3320

Пост 19-Мар-2014 19:44 (спустя 19 минут)

[Q] 

В названии "Возмездие", в описании "Месть"...
НАдо как-то держаться одной линии, нет?

_________________
-выстрели еще разок. -зачем? - его душа еще танцует...
[Профиль]  [ЛС] 

Пост 22-Мар-2014 20:41 (спустя 3 дня)

Топик был перенесен из форума Зарубежные сериалы (Трюм) в форум Зарубежные сериалы
kugesan
 
Показать сообщения:    
Ответить на тему

Текущее время: Сегодня 14:47

Часовой пояс: GMT + 4



Вы не можете начинать темы
Вы не можете отвечать на сообщения
Вы не можете редактировать свои сообщения
Вы не можете удалять свои сообщения
Вы не можете голосовать в опросах
Вы не можете прикреплять файлы к сообщениям
Вы не можете скачивать файлы

▼ Вниз