ML
     
  Уважаемый Гость!
Вы можете поддержать проект и зарегистрироваться у наших партнеров - онлайн-стратегия MyLands. При регистрации в игре Вы получите код, который сможете активировать после регистрации на pirat.ca и получить 1000 дублонов.

Ваш код:
e93cd9e43017f251127f220889864c05934e61c6
 
     

Футболисты / Игроки / Ballers / Сезон: 1 / Полный / Серии: 10 из 10 (Питер Берг / Peter Berg) [2015 г., драма, комедия, ..., HDTVRip] MVO (Amedia) + Original (Eng) + Sub (rus)

Ответить на тему
 
Автор
Сообщение

Пост 22-Мар-2014 13:24

[Q] 

kugesan

-Футболисты / Игроки / Ballers-- Производство: США
Жанр: драма, комедия, ...
Год выпуска: 2015 г.-Мировая премьера: 22 июня 2015-Озвучка: Студия
Перевод: Многоголосый закадровый, профессиональный
Оригинальный аудиопоток: английский-Режиссер: Питер Берг / Peter Berg-В ролях: Дуэйн Джонсон, Jazmyn Simon, Донован Картер, Роб Кордри, Трой Гэрити, Омар Бенсон Миллер, Джон Дэвид Вашингтон, London Brown, Анабель Акоста, Дьюли Хилл ...-Описание:
Новый совместный проект Дуэйна «Скалы» Джонсона, Марка Уолберга и режиссера «Хэнкока» Питера Берга - комедийная драма НВО о жизни профессиональных игроков в американский футбол. Они зарабатывают миллионы, на них молятся фанаты, их показывают в новостях. Но помимо многочасовых тренировок, пятничных игр и вспышек фотокамер у них есть друзья, семьи и, конечно, проблемы – почти такие же, как у обычных людей. С девушкой помириться - это, знаете ли, не тачдаун оформить.?-Сезон: 1
Серии: 10 из 10 серий
Продолжительность: ~ 00:28:00 мин серия-Качество видео: HDTVRip
Контейнер: AVI
Видео кодек: XviD
Аудио кодек: AC-3
Видео: MPEG-4 Visual at 1500 Кбит/сек: 720 x 400 (1.800) at 25.000 fps: 0.21 Бит/Пиксели
Аудио Rus: AC-3 at 192 Кбит/сек: 2 канала, 48,0 КГц |Amedia|
Аудио Eng: AC-3 at 192 Кбит/сек: 2 канала, 48,0 КГц |Original|
Субтитры: Русские
Формат: softsub (SRT)
- -
  • Пилотный выпуск (Pilot)
  • Второй Шанс (Raise Up)
  • Новый уровень (Move the Chains)
  • Кто-то останется без работы (Heads Will Roll)
  • Атака с мачете (Machete Charge)
  • Всё путём (Everything Is Everything)
  • Конец (Ends)
  • Затрахать мозг (Gaslighting)
  • В Лоб (Head-On)
  • Фламинго (Flamingos)
-
Общее
Полное имя : E:\_Сериалы\_Сериалы\Футболисты\Ballers.S01.Rus.Eng.CasStudio\Ballers.S01E01.Rus.Eng.CasStudio.avi
Формат : AVI
Формат/Информация : Audio Video Interleave
Размер файла : 391 Мбайт
Продолжительность : 28 м.
Общий поток : 1899 Кбит/сек
Программа кодирования : VirtualDubMod 1.5.10.2 (build 2540/release)
Библиотека кодирования : VirtualDubMod build 2540/release
Видео
Идентификатор : 0
Формат : MPEG-4 Visual
Профиль формата : Advanced [email protected]
Параметр BVOP формата : 2
Параметр QPel формата : Нет
Параметр GMC формата : Без точки перехода
Параметр матрицы формата : Default (MPEG)
Идентификатор кодека : XVID
Идентификатор кодека/Подсказка : XviD
Продолжительность : 28 м.
Битрейт : 1500 Кбит/сек
Ширина : 720 пикселей
Высота : 400 пикселей
Соотношение сторон : 16:9
Частота кадров : 25,000 кадров/сек
Цветовое пространство : YUV
Субдискретизация насыщенности : 4:2:0
Битовая глубина : 8 бит
Тип развёртки : Прогрессивная
Метод сжатия : С потерями
Бит/(Пиксели*Кадры) : 0.208
Размер потока : 309 Мбайт (79%)
Библиотека кодирования : XviD 1.2.0.dev47 (UTC 2006-11-01)
Аудио #1
Идентификатор : 1
Формат : AC-3
Формат/Информация : Audio Coding 3
Расширение режима : CM (complete main)
Параметр Endianness формата : Big
Идентификатор кодека : 2000
Продолжительность : 28 м.
Вид битрейта : Постоянный
Битрейт : 192 Кбит/сек
Каналы : 2 канала
Расположение каналов : Front: L R
Частота : 48,0 КГц
Метод сжатия : С потерями
Размер потока : 39,5 Мбайт (10%)
Выравнивание : Разделение по промежуткам
Продолжительность промежутка : 40 мс. (1,00 видеокадр)
Время предзагрузки промежутка : 500 мс.
Аудио #2
Идентификатор : 2
Формат : AC-3
Формат/Информация : Audio Coding 3
Расширение режима : CM (complete main)
Параметр Endianness формата : Big
Идентификатор кодека : 2000
Продолжительность : 28 м.
Вид битрейта : Постоянный
Битрейт : 192 Кбит/сек
Каналы : 2 канала
Расположение каналов : Front: L R
Частота : 48,0 КГц
Метод сжатия : С потерями
Размер потока : 39,5 Мбайт (10%)
Выравнивание : Разделение по промежуткам
Продолжительность промежутка : 40 мс. (1,00 видеокадр)
Время предзагрузки промежутка : 500 мс.
-
-Скриншоты:
-
-
Раздача ведётся путём добавления новых серий; при каждом добавлении создаётся новый торрент.
Чтобы начать докачку новой серии, пользователям необходимо сделать следующее:
1. остановить скачивание,
2. удалить старый торрент у себя из клиента (старые серии удалять не надо),
3. скачать новый торрент и запустить его у себя в клиенте вместо старого, при этом указать клиенту путь в старую папку, куда и должно происходить скачивание новых серий.
Ваш клиент при этом должен произвести хеширование (проверку) старой папки (если не производит сам - помогите ему сделать это), и будет докачивать только те серии которых у вас ещё нет. Старые серии при этом не удаляются, а продолжают раздаваться!
Eсли вы уже удалили старые серии, то предотвратить повторную закачку старых серий можно, отжав галочку в соответствующих местах при запуске нового торрента. По возможности, желательно не удалять старые серии как можно дольше, чтобы релизёр не столько продолжал раздавать старые серии, а смог сконцентрироваться на новых.
Совет для тех, кто не хочет ждать перехеширования:
Создайте ещё одну папку рядом с папкой сериала (рядом, а не в ней!!!). Каждую новую серию после удачной загрузки копируйте в новую папку так чтобы ваша основная папка всегда была пуста. Когда ваш новый торрент предложит вам закачать все файлы, выберете только последнюю. Для сидирования же укажите адрес новой папки.
Как закачать отдельный файл из торрента или докачать ранее пропущенные файлы торрента!
-
1. Открыть торрент
2. Снять галки с тех файлов торрента, которые мы не хотим закачивать. Оставляем только на нужных нам файлах (файле).
3. Нажать О.К.
В клиенте utorrent
Инструкция
1) Открыть торрент

2) Снять галки с тех файлов торрента, которые мы не хотим закачивать:
* либо вручную, снимая с каждого файла галку( скрин №1)
* либо, нажав кнопку "Снять метки (Select None)", сняв сразу со всех файлов(скрин №2)
№1

№2

Оставляем только на нужных нам файлах (файле).

3)Нажать О.К
Добавлена десятая, заключителбная, серия первого сезона
Download / Скачать

Хотите скачать бесплатно? Зарегистрируйтесь на сайте (ссылка на регистрацию). Pirat.ca - самый быстрый торрент трекер в рунете!

Как скачивать  ·   Что такое торрент  ·   Рейтинг и ограничения



Последний раз редактировалось: kugesan (2016-08-08 20:25), всего редактировалось 30 раз(а)

kugesan ®

56634

Пост 24-Авг-2015 12:28 (спустя 1 год 5 месяцев)

[Q] 

Добавлена десятая, заключительная, серия первого сезона

_________________

В мире две бесконечности: вселенная и человеческая глупость - Альберт Эйнштен
«Можно вытащить человека из грязи, но нельзя вытащить грязь из человека»!
[Профиль]  [ЛС] 

Пост 24-Авг-2015 19:24 (спустя 6 часов)

Топик был перенесен из форума Сериалы в эфире в форум Зарубежные сериалы
Андря
 

pdb08

Легенда

Пост 25-Авг-2015 09:40 (спустя 21 час)

[Q] 

Спасибо!!! Автору респект!!! .

_________________
[Профиль]  [ЛС] 

kugesan ®

56634

Пост 25-Авг-2015 12:30 (спустя 2 часа 50 минут)

[Q] 

Приятного просмотра!!!

_________________

В мире две бесконечности: вселенная и человеческая глупость - Альберт Эйнштен
«Можно вытащить человека из грязи, но нельзя вытащить грязь из человека»!
[Профиль]  [ЛС] 
Показать сообщения:    
Ответить на тему

Текущее время: Сегодня 04:25

Часовой пояс: GMT + 4



Вы не можете начинать темы
Вы не можете отвечать на сообщения
Вы не можете редактировать свои сообщения
Вы не можете удалять свои сообщения
Вы не можете голосовать в опросах
Вы не можете прикреплять файлы к сообщениям
Вы не можете скачивать файлы

▼ Вниз