Сотня / The 100 / Сезон: 1 / полный / Серии: 1-13 из 13 (Дин Уайт / Dean White) [2014 г., фантастика, WEB-DLRip] MVO (LostFilm) + Original

Ответить на тему
 
Автор
Сообщение

Пост 23-Мар-2014 17:04

[Q] 

kugesan

-Сотня / The 100-- Производство: США
Жанр: фантастика, ...
Год выпуска: 2014 г.
Продолжительность: ~ 00:41:00 мин серия-Мировая премьера: 19 марта 2014-Озвучка: Студия |LostFilm|
Перевод: Многоголосый закадровый, профессиональный-Режиссер: Дин Уайт / Dean White, Джон Беринг / John Behring, Милан Чейлов / Milan Cheylov, ...-В ролях: Элиза Тейлор-Коттер, Мари Авгеропулос, Сачин Сахель, Линдси Морган, Женевьев Бюкнер, Ричард Хэрмон, Джарод Джозеф, Челси Рейст, Крис Браунинг, Джош Ссеттуба ...-Описание:
События в сериале начинают разворачиваться по прошествии девяносто семи лет после того как всю цивилизацию уничтожила страшная атомная война.
Высоко в космосе на орбите Земли летает большой космический корабль, именно здесь находятся те, кто выжил после страшной катастрофы. Они единственные кто пережил этот ужасный катаклизм который устроило человечество. Именно с этого последнего пристанища людей на Землю отправляют космический челнок на котором находятся сто малолетних преступников…-Качество видео: WEB-DLRip
Контейнер: AVI
Видео кодек: XviD
Аудио кодек: MP3
Видео: MPEG-4 Visual at 1500 Кбит/сек: 720 x 400 (1.800) at 23.976 fps: 0.22 Бит/Пиксели
Аудио Rus: MPEG Audio at 192 Кбит/сек: 2 канала, 48,0 КГц |LostFilm|
Аудио Eng: MPEG Audio at 192 Кбит/сек: 2 канала, 48,0 КГц |Original|
Cубтитры: отсутствуют
- -
  • Пилот (Pilot)
  • Выжить на Земле (Earth Skills)
  • Умереть на Земле (Earth Kills)
  • Закон Мерфи (Murphy's Law)
  • Последний луч сумерек (Twilight's Last Gleaming)
  • Ради сестры (His Sister's Keeper)
  • Под давлением (Contents Under Pressure)
  • Однодневное путешествие (Day Trip)
  • День единства (Unity Day)
  • Я стал Смертью (I Am Become Death)
  • Тишина (The Calm)
  • Мы - земляне: часть 1 (We Are Grounders: Part 1)
  • Мы - земляне: часть 2 (We Are Grounders: Part 2)
-
Общее
Полное имя : E:\_Сериалы\The 100 (1 season, LostFilm) WEB-DLrip\The.100.S01E01.LostFilm.WEB-DLrip[TV.MEKC.INFO]-Tyance.avi
Формат : AVI
Формат/Информация : Audio Video Interleave
Размер файла : 562 Мбайт
Продолжительность : 41 м. 25 с.
Общий поток : 1898 Кбит/сек
Программа кодирования : VirtualDubMod 1.5.10.2 (build 2540/release)
Библиотека кодирования : VirtualDubMod build 2540/release
Видео
Идентификатор : 0
Формат : MPEG-4 Visual
Профиль формата : Advanced [email protected]
Настройки формата : BVOP2
Параметр BVOP формата : 2
Параметр QPel формата : Нет
Параметр GMC формата : Без точки перехода
Параметр матрицы формата : Default (MPEG)
Идентификатор кодека : XVID
Идентификатор кодека/Подсказка : XviD
Продолжительность : 41 м. 25 с.
Битрейт : 1500 Кбит/сек
Ширина : 720 пикселей
Высота : 400 пикселей
Соотношение сторон : 16:9
Частота кадров : 23,976 (24000/1001) кадра/сек
Цветовое пространство : YUV
Субдискретизация насыщенности : 4:2:0
Битовая глубина : 8 бит
Тип развёртки : Прогрессивная
Метод сжатия : С потерями
Бит/(Пиксели*Кадры) : 0.217
Размер потока : 444 Мбайт (79%)
Библиотека кодирования : XviD 1.2.1 (UTC 2008-12-04)
Аудио #1
Идентификатор : 1
Формат : MPEG Audio
Версия формата : Version 1
Профиль формата : Layer 3
Настройки формата : Joint stereo
Идентификатор кодека : 55
Идентификатор кодека/Подсказка : MP3
Продолжительность : 41 м. 25 с.
Вид битрейта : Постоянный
Битрейт : 192 Кбит/сек
Каналы : 2 канала
Частота : 48,0 КГц
Частота кадров : 41,667 кадра/сек (1152 SPF)
Метод сжатия : С потерями
Размер потока : 56,9 Мбайт (10%)
Выравнивание : Соединение по промежуткам
Продолжительность промежутка : 42 мс. (1,00 видеокадр)
Время предзагрузки промежутка : 504 мс.
Библиотека кодирования : LAME3.99r
Настройки программы : -m j -V 4 -q 3 -lowpass 18.6 -b 192
Аудио #2
Идентификатор : 2
Формат : MPEG Audio
Версия формата : Version 1
Профиль формата : Layer 3
Идентификатор кодека : 55
Идентификатор кодека/Подсказка : MP3
Продолжительность : 41 м. 25 с.
Вид битрейта : Постоянный
Битрейт : 192 Кбит/сек
Каналы : 2 канала
Частота : 48,0 КГц
Частота кадров : 41,667 кадра/сек (1152 SPF)
Метод сжатия : С потерями
Размер потока : 56,9 Мбайт (10%)
Выравнивание : Соединение по промежуткам
Продолжительность промежутка : 42 мс. (1,00 видеокадр)
Время предзагрузки промежутка : 504 мс.
Библиотека кодирования : LAME3.99r
Настройки программы : -m s -V 4 -q 0 -lowpass 18.6 -b 192
-
-
-
-
-
Раздача ведётся путём добавления новых серий; при каждом добавлении создаётся новый торрент.
Чтобы начать докачку новой серии, пользователям необходимо сделать следующее:
1. остановить скачивание,
2. удалить старый торрент у себя из клиента (старые серии удалять не надо),
3. скачать новый торрент и запустить его у себя в клиенте вместо старого, при этом указать клиенту путь в старую папку, куда и должно происходить скачивание новых серий.
Ваш клиент при этом должен произвести хеширование (проверку) старой папки (если не производит сам - помогите ему сделать это), и будет докачивать только те серии которых у вас ещё нет. Старые серии при этом не удаляются, а продолжают раздаваться!
Eсли вы уже удалили старые серии, то предотвратить повторную закачку старых серий можно, отжав галочку в соответствующих местах при запуске нового торрента. По возможности, желательно не удалять старые серии как можно дольше, чтобы релизёр не столько продолжал раздавать старые серии, а смог сконцентрироваться на новых.
Совет для тех, кто не хочет ждать перехеширования:
Создайте ещё одну папку рядом с папкой сериала (рядом, а не в ней!!!). Каждую новую серию после удачной загрузки копируйте в новую папку так чтобы ваша основная папка всегда была пуста. Когда ваш новый торрент предложит вам закачать все файлы, выберете только последнюю. Для сидирования же укажите адрес новой папки.
Как закачать отдельный файл из торрента или докачать ранее пропущенные файлы торрента!
-
1. Открыть торрент
2. Снять галки с тех файлов торрента, которые мы не хотим закачивать. Оставляем только на нужных нам файлах (файле).
3. Нажать О.К.
В клиенте utorrent
Инструкция
1) Открыть торрент

2) Снять галки с тех файлов торрента, которые мы не хотим закачивать:
* либо вручную, снимая с каждого файла галку( скрин №1)
* либо, нажав кнопку "Снять метки (Select None)", сняв сразу со всех файлов(скрин №2)
№1

№2

Оставляем только на нужных нам файлах (файле).

3)Нажать О.К
-Приятного просмотра!!!-
Download / Скачать

Хотите скачать бесплатно? Зарегистрируйтесь на сайте (ссылка на регистрацию). Pirat.ca - самый быстрый торрент трекер в рунете!

Как скачивать  ·   Что такое торрент  ·   Рейтинг и ограничения



Последний раз редактировалось: kugesan (2017-12-16 19:54), всего редактировалось 13 раз(а)

Пост 23-Мар-2014 21:16 (спустя 4 часа)

Топик был перенесен из форума Зарубежные сериалы (Трюм) в форум Сериалы в эфире
erchine
 

malefik36

Морской Волк

Пост 06-Апр-2014 03:38 (спустя 13 дней)

[Q] 

у сериала интересная идея, жаль что испытание на выживание превратили в драматический фарс и бандитские разборки, которые не затихают ни на секунду.
[Профиль]  [ЛС] 

Astor23

Штурман

185

Пост 25-Май-2014 17:26 (спустя 1 месяц 19 дней)

[Q] 

518355у сериала интересная идея, жаль что испытание на выживание превратили в драматический фарс и бандитские разборки, которые не затихают ни на секунду.
У этой компании каждый сериал такой
[Профиль]  [ЛС] 

kugesan ®

62639

Пост 14-Июн-2014 22:04 (спустя 20 дней)

[Q] 

Добавлена тринадцатая, заключительная, серия первого сезона

_________________
В мире две бесконечности: вселенная и человеческая глупость - Альберт Эйнштен
«Можно вытащить человека из грязи, но нельзя вытащить грязь из человека»!
[Профиль]  [ЛС] 

Victorsalata

Корсар

Пост 24-Июн-2014 20:25 (спустя 9 дней)

[Q] 

Спасибо. Первый сезон достаточно интересный.
[Профиль]  [ЛС] 

sergej 1340

Морской Волк

Пост 12-Сен-2014 13:47 (спустя 2 месяца 17 дней)

[Q] 

спасибо! Автору респект!!!
[Профиль]  [ЛС] 

vanek007

Морской Волк

Пост 14-Сен-2014 21:37 (спустя 2 дня 7 часов)

[Q] 

Спасибо!!! !COOL!
[Профиль]  [ЛС] 

bolikgeko

Гроза морей

325

Пост 20-Янв-2015 21:14 (спустя 4 месяца 5 дней)

[Q] 

оч. похоже на --- Остаться в живых
[Профиль]  [ЛС] 

maikl611

Флибустьер

Пост 17-Янв-2016 16:08 (спустя 11 месяцев 27 дней)

[Q] 

На любителя
ИМХО....
[Профиль]  [ЛС] 

Wolf111

59454

Пост 19-Авг-2016 15:16 (спустя 7 месяцев 1 день)

[Q] 

Спасибо!!! Раздающему респект!
[Профиль]  [ЛС] 

Пост 28-Май-2017 22:04 (спустя 9 месяцев 9 дней)

Топик был перенесен из форума Зарубежные сериалы в форум Сотня / The 100
Пират Пиратович
 
Показать сообщения:    
Ответить на тему

Текущее время: Сегодня 13:11

Часовой пояс: GMT + 4



Вы не можете начинать темы
Вы не можете отвечать на сообщения
Вы не можете редактировать свои сообщения
Вы не можете удалять свои сообщения
Вы не можете голосовать в опросах
Вы не можете прикреплять файлы к сообщениям
Вы не можете скачивать файлы

Майнать ▼