ML
     
  Уважаемый Гость!
Вы можете поддержать проект и зарегистрироваться у наших партнеров - онлайн-стратегия MyLands. При регистрации в игре Вы получите код, который сможете активировать после регистрации на pirat.ca и получить 1000 дублонов.

Ваш код:
8b752b428cf60a012c159dcae592cd1392170115
 
     

Следствие по телу / Body of Proof / Сезон: 3 / Серии: 1-13 (13) (Кристин Мур / Christine Moore, Нельсон МакКормик / Nelson McCormick) [2013 г., драма, криминал, детектив, WEB-DL, 720p] Dub (Fox Life) + Original (Eng)

Ответить на тему
 
Автор
Сообщение

Пост 26-Мар-2014 15:33

[Q] 

TERMOS

Легенда

-Следствие по телу / Body of Proof
(3 сезон)
-- Производство: США
Жанр: драма, криминал, детектив
Год выпуска: 2013 г.
Продолжительность: 13 х ~00:43:00
Перевод: Профессиональный (полное дублирование) [Fox Life]
Оригинальный аудиопоток: английский
Режиссер: Кристин Мур / Christine Moore, Нельсон МакКормик / Nelson McCormick-В ролях: Дана Дилэйни, Николас Бишоп, Уинделл Миддлбрукс, Сюзанн Гиллис, Джеффри Аренд, Джон Кэрролл Линч, Джери Райан, Billy "V" Vigeant, Чак Славин, Филлис Линн-Описание: Когда ее карьера выдающегося нейрохирурга внезапно прервалась, доктор Меган Хант стала использовать свои блестящие знания в медицине для раскрытия преступлений. Каждый труп может многое рассказать, и доктор Хант обязательно все выяснит.
    Доктор Меган Хант была ведущим нейрохирургом, пока из-за автомобильной аварии ее карьера не оборвалась. И теперь, раз уж живым помочь она больше не в силах, она стала судмедэкспертом. И хотя свою работу она делает на отлично, репутация «сложного человека» преследует ее везде. Ее начальник пытается ее защищать, но она слишком часто наступает на больную мозоль. И хотя он, с ворчанием, все же признает ее медицинские способности, ее коллега, опытный детектив полиции Бад Моррис, вовсе не в восторге от методов Меган.
    К счастью, у доктора Хант все же есть несколько почитателей. Младшие судмедэксперты полагаются на ее опыт, а ее напарник, медицинский следователь Питер Данлэп, нормально воспринимает ее странное поведение. Может это потому, что он единственный, кто знает — сложность характера Хант частично вызвана чувством вины. Перед тем, как оставить нейрохирургию, Мэган случайно убила своего пациента. Прибавьте к этому тяжелый развод, в результате которого дочь-подросток осталась под опекунством отца, и вы получите рецепт одиночества. Что касается понимания мертвых, то тут доктору Хант нет равных. А вот в отношениях с живыми ей есть над чем работать.

- -Качество видео: WEB-DL
Контейнер: MKV
Стандарт разрешения: 720p
Видео кодек: H.264/AVC
Аудио кодек: AC3
Видео: 1280x720 at 23.976 fps, ~4100 kbps avg
Аудио: Russian: 48 kHz, AC3, 2/0 (L,R) ch, ~192.00 kbps avg |Дубляж, Fox Life|
Аудио #2: English: 48 kHz, AC3, 3/2 (L,C,R,l,r) + LFE ch, ~384.00 kbps avg
Cубтитры: отсутствуют
01. Abducted: Part I / Похищение, Часть 1
02. Abduction: Part II / Похищение, Часть 2
03. Lost Souls / Заблудшие души
04. Mob Mentality / Разум мафии
05. Eye for an Eye / Око за око
06. Fallen Angel / Падший ангел
07. Skin and Bones / Кожа да кости
08. Doubting Tommy / Томми - подозреваемый
09. Disappearing Act / Теряющий силу закон
10. Committed / Преданный
11. Dark City / Город, покрытый мраком
12. Breakout / Побег
13. Daddy Issues / Вопросы об отце
Код:
General
Complete name                    : T:\Uploads\Pirat.Ca\Body of Proof - Season 03 (2013)[WEB-DL.720p]\Body.of.Proof.S03E01.720p.WEB-DL.Rus.Eng.NovaFilmTV.mkv
Format                           : Matroska
File size                        : 1.43 GiB
Duration                         : 42mn 31s
Overall bit rate                 : 4 802 Kbps
Encoded date                     : UTC 2013-04-18 19:58:19
Writing application              : mkvmerge v6.1.0 ('Old Devil') built on Mar  2 2013 14:32:37
Writing library                  : libebml v1.3.0 + libmatroska v1.4.0
Video
ID                               : 1
Format                           : AVC
Format/Info                      : Advanced Video Codec
Format profile                   : [email protected]
Format settings, CABAC           : No
Format settings, ReFrames        : 2 frames
Format settings, GOP             : M=2, N=32
Muxing mode                      : Container [email protected]
Codec ID                         : V_MPEG4/ISO/AVC
Duration                         : 42mn 31s
Bit rate mode                    : Variable
Bit rate                         : 4 131 Kbps
Width                            : 1 280 pixels
Height                           : 720 pixels
Display aspect ratio             : 16:9
Frame rate                       : 23.976 fps
Color space                      : YUV
Chroma subsampling               : 4:2:0
Bit depth                        : 8 bits
Scan type                        : Progressive
Bits/(Pixel*Frame)               : 0.187
Stream size                      : 1.23 GiB (86%)
Language                         : English
Color primaries                  : BT.709-5, BT.1361, IEC 61966-2-4, SMPTE RP177
Transfer characteristics         : BT.709-5, BT.1361
Matrix coefficients              : BT.709-5, BT.1361, IEC 61966-2-4 709, SMPTE RP177
Audio #1
ID                               : 2
Format                           : AC-3
Format/Info                      : Audio Coding 3
Mode extension                   : CM (complete main)
Codec ID                         : A_AC3
Duration                         : 42mn 31s
Bit rate mode                    : Constant
Bit rate                         : 192 Kbps
Channel(s)                       : 2 channels
Channel positions                : Front: L R
Sampling rate                    : 48.0 KHz
Bit depth                        : 16 bits
Stream size                      : 58.4 MiB (4%)
Language                         : Russian
Audio #2
ID                               : 3
Format                           : AC-3
Format/Info                      : Audio Coding 3
Mode extension                   : CM (complete main)
Codec ID                         : A_AC3
Duration                         : 42mn 31s
Bit rate mode                    : Constant
Bit rate                         : 384 Kbps
Channel(s)                       : 6 channels
Channel positions                : Front: L C R, Side: L R, LFE
Sampling rate                    : 48.0 KHz
Bit depth                        : 16 bits
Stream size                      : 117 MiB (8%)
Language                         : English
Download / Скачать

Хотите скачать бесплатно? Зарегистрируйтесь на сайте (ссылка на регистрацию). Pirat.ca - самый быстрый торрент трекер в рунете!

Как скачивать  ·   Что такое торрент  ·   Рейтинг и ограничения

Пост 26-Мар-2014 22:53 (спустя 7 часов)

Топик был перенесен из форума Зарубежные сериалы (Трюм) в форум Зарубежные сериалы
kugesan
 
Показать сообщения:    
Ответить на тему

Текущее время: Сегодня 06:22

Часовой пояс: GMT + 4



Вы не можете начинать темы
Вы не можете отвечать на сообщения
Вы не можете редактировать свои сообщения
Вы не можете удалять свои сообщения
Вы не можете голосовать в опросах
Вы не можете прикреплять файлы к сообщениям
Вы не можете скачивать файлы

▼ Вниз