ML
     
  Уважаемый Гость!
Вы можете поддержать проект и зарегистрироваться у наших партнеров - онлайн-стратегия MyLands. При регистрации в игре Вы получите код, который сможете активировать после регистрации на pirat.ca и получить 1000 дублонов.

Ваш код:
e93cd9e43017f251127f220889864c05934e61c6
 
     

Карточный домик / House of Cards / Сезон: 2 (Джеймс Фоули / James Foley, Карл Франклин / Carl Franklin) [2014 г., драма, WEB-DLRip, 720p] MVO (Первый канал) + Original (Eng)

Ответить на тему
 
Автор
Сообщение

Пост 26-Мар-2014 19:21

[Q] 

mishanya___

-Карточный домик / House of Cards-Season II-
Производство: США, "Netflix"
Жанр: драма
Год выпуска: 2014 г.
Продолжительность: ~00:50:00 серия
Мировая премьера: 1 февраля 2013
Российская премьера: 5 февраля 2013
Перевод: Профессиональный (многоголосый, закадровый) [Первый канал]
Оригинальный аудиопоток: Английский
Режиссер: Джеймс Фоули / James Foley, Карл Франклин / Carl Franklin-В ролях: Кевин Спейси, Робин Райт, Кейт Мара, Кори Столл, Майкл Келли, Сакина Джэффри, Жаклин Джонс, Рюэл Пендлтон, Гилберт Сото, Сандрин Холт-Описание: Амбициозный конгрессмен от Демократической партии Фрэнк Андервуд в обмен на обещание сделать его госсекретарём помогает Гаррету Уокеру стать президентом США. Однако после выборов глава администрации президента Линда Васкез сообщает Андервуду, что он не получит должность. Взбешенные предательством Фрэнк и его жена готовы пойти на всё, чтобы отомстить новоиспечённому президенту.
-
Качество видео: WEB-DLRip
Контейнер: MKV
Стандарт разрешения: 720p
Видео кодек: AVC
Аудио кодек: AC3
Видео: 1280x638; 3 825 kbps; 23.976 fps
Аудио #1: 192 Kbps; 2 ch; 48.0 KHz (Rus)
Аудио #2: 384 Kbps; 6 ch; 48.0 KHz (Eng)
General
Complete name : E:\House.of.Cards.(S02).720p.1TV\House.of.Cards.S02E01.1TV.WEB-DL.720p.mkv
Format : Matroska
Format version : Version 2
File size : 1.58 GiB
Duration : 50mn 19s
Overall bit rate : 4 490 Kbps
Encoded date : UTC 2014-02-24 15:36:07
Writing application : mkvmerge v5.2.0 ('I can't explain') built on Dec 18 2011 18:12:03
Writing library : libebml v1.2.3 + libmatroska v1.3.0
Video
ID : 1
Format : AVC
Format/Info : Advanced Video Codec
Format profile : [email protected]
Format settings, CABAC : No
Format settings, ReFrames : 2 frames
Codec ID : V_MPEG4/ISO/AVC
Duration : 50mn 19s
Bit rate : 3 825 Kbps
Width : 1 280 pixels
Height : 638 pixels
Display aspect ratio : 2.006
Frame rate mode : Constant
Frame rate : 23.976 fps
Color space : YUV
Chroma subsampling : 4:2:0
Bit depth : 8 bits
Scan type : Progressive
Bits/(Pixel*Frame) : 0.195
Stream size : 1.34 GiB (85%)
Language : English
Default : Yes
Forced : No
Color primaries : BT.709
Transfer characteristics : BT.709
Matrix coefficients : BT.709
Audio #1
ID : 2
Format : AC-3
Format/Info : Audio Coding 3
Mode extension : CM (complete main)
Format settings, Endianness : Big
Codec ID : A_AC3
Duration : 50mn 19s
Bit rate mode : Constant
Bit rate : 192 Kbps
Channel(s) : 2 channels
Channel positions : Front: L R
Sampling rate : 48.0 KHz
Bit depth : 16 bits
Compression mode : Lossy
Stream size : 69.1 MiB (4%)
Language : Russian
Default : Yes
Forced : No
Audio #2
ID : 3
Format : AC-3
Format/Info : Audio Coding 3
Mode extension : CM (complete main)
Format settings, Endianness : Big
Codec ID : A_AC3
Duration : 50mn 19s
Bit rate mode : Constant
Bit rate : 384 Kbps
Channel(s) : 6 channels
Channel positions : Front: L C R, Side: L R, LFE
Sampling rate : 48.0 KHz
Bit depth : 16 bits
Compression mode : Lossy
Stream size : 138 MiB (9%)
Language : English
Default : No
Forced : No
- -
Download / Скачать

Хотите скачать бесплатно? Зарегистрируйтесь на сайте (ссылка на регистрацию). Pirat.ca - самый быстрый торрент трекер в рунете!

Как скачивать  ·   Что такое торрент  ·   Рейтинг и ограничения

Пост 26-Мар-2014 22:50 (спустя 3 часа)

Топик был перенесен из форума Зарубежные сериалы (Трюм) в форум Зарубежные сериалы
kugesan
 

Fortochnik

Лоцман

Пост 29-Мар-2014 17:18 (спустя 2 дня 21 час)

[Q] 

Полностью сезон СПАМ
Странно что здесь не закачали
!Виктор 1964 писал(а):

2.9 Размещать ссылки вражеских ресурсов, особенно, если существует раздача на нашем фрегате (исключениями могут являться ссылки на информацию, домашнюю страницу или описание программы/фильма, а также сэмплы).
[Профиль]  [ЛС] 

mishanya___ ®

21467

Пост 29-Мар-2014 17:21 (спустя 3 минуты)

[Q] 

Fortochnik, ссылки на сторонние ресурсы запрещены.
И чем Вас не устраивает эта раздача?
[Профиль]  [ЛС] 

Elinas1982

Лоцман

Пост 05-Янв-2015 13:01 (спустя 9 месяцев 6 дней)

[Q] 

Эх! Еще бы первый сезон в таком же качестве!
[Профиль]  [ЛС] 

fiona-d

Шкипер

32

Пост 05-Апр-2015 13:30 (спустя 3 месяца)

[Q] 

спасибо!!! !COOL!
[Профиль]  [ЛС] 

MikeB

Гроза морей

Пост 11-Мар-2016 01:23 (спустя 11 месяцев 5 дней)

[Q] 

отличный сериал. спасибо.
[Профиль]  [ЛС] 
Показать сообщения:    
Ответить на тему

Текущее время: Сегодня 04:28

Часовой пояс: GMT + 4



Вы не можете начинать темы
Вы не можете отвечать на сообщения
Вы не можете редактировать свои сообщения
Вы не можете удалять свои сообщения
Вы не можете голосовать в опросах
Вы не можете прикреплять файлы к сообщениям
Вы не можете скачивать файлы

▼ Вниз