ML
     
  Уважаемый Гость!
Вы можете поддержать проект и зарегистрироваться у наших партнеров - онлайн-стратегия MyLands. При регистрации в игре Вы получите код, который сможете активировать после регистрации на pirat.ca и получить 1000 дублонов.

Ваш код:
47bfc18b89c74e4ae0d974e9b6943639e2bff08e
 
     

Теория большого взрыва / The Big Bang Theory / 7 сезон / Серии 1-24 из 24 (Марк Сендроуски, Питер Чакос, Энтони Джозеф Рич / Mark Cendrowski, Peter Chakos, Anthony Joseph Rich) [2013 - 2014 г.г., Ситком, комедия, HDTVRip] VO [Кураж-Бамбей] + Eng

Ответить на тему
 
Автор
Сообщение

Пост 29-Мар-2014 19:38

[Q] 

erchine

-Теория большого взрыва / The Big Bang Theory-7 сезон / Серии 1-24 из 24- Производство: США, Chuck Lorre Productions, Warner Bros. Television
Год выпуска: 2013
Жанр: Ситком, комедия
Продолжительность: 24 x ~ 00:21:00
Перевод: Профессиональный (одноголосый закадровый) Кураж-Бамбей
Оригинальный аудиопоток: английский
Режиссер: Марк Сендроуски, Питер Чакос, Энтони Джозеф Рич / Mark Cendrowski, Peter Chakos, Anthony Joseph Rich
В ролях: Джонни Галэки, Джим Парсонс, Кейли Куоко, Саймон Хелберг, Кунал Найяр, Майем Биалик, Мелисса Рауш, Кэрол Энн Сьюзи, Кевин Суссман, Арти Манн, Брайан Джордж, Элис Эмтер, Сара Гилберт, Джон Росс Боуи, Уил Уитон, Лори Меткаф, Верни Уотсон-Джонсон, Кристин Барански, Джошуа Малина, Кейси Сэндер, Кэти Леклерк
Описание: Два блестящих физика, Леонард и Шелдон, «великие умы», которые понимают, как «работает вселенная». Но их гениальность ничуть не помогает им общаться с людьми, особенно с женщинами. Всё начинает меняться, когда напротив них поселяется красавица Пенни. Когда Леонард и Шелдон встречают Пенни, Леонард сразу же начинает интересоваться ею. Он видит в общении с Пенни огромную перспективу, вплоть до любви, однако Шелдон понимает, что мечтам его друга не суждено сбыться. Стоит также отметить пару странных друзей этих физиков: Воловиц, который любит употреблять фразы на разных языках, включая русский, и Раджеш Кутрапали, теряющий дар речи при виде женщин.-КиноПоиск / IMDB-Качество: HDTVRip
Контейнер: AVI
Видео кодек: XviD
Аудио кодек: AC3
Видео: XviD, ~ 1200 Кбит/с, 720x400, 23,976 кадра/сек, 0.176 bit/pixel
Аудио 1, 2: Русский, английский (MP3, 2 ch, 128 Кбит/с, 48 kHz)
01. The Hofstadter Deficiency
02. The Deception Verification
03. The Scavenger Vortex
04. The Raiders Minimization
05. The Workplace Proximity
06. The Romance Resonance
07. The Proton Displacement
08. The Itchy Brain Simulation
09. The Thanksgiving Decoupling
10. The Discovery Dissipation
11. The Cooper Extraction
12. The Hesitation Ramification
13. The Occupation Recalibration
14. The Convention Conundrum
15. The Locomotion Manipulation
16. The Table for Polarization
17. The Friendship Turbulance
18. The Mommy Observation
19. The Indecision Amalgamation
20. The Relationship Diremption
21. The Anything Can Happen Recurrence
22. The Proton Transmogrification
23. The Gorilla Dissolution
24. The Status Quo Combustion
Общее
Полное имя : E:\the.big.bang.theory.s07.hdtvrip.rus.eng.kuraj-bambey\the.big.bang.theory.s07e01.hdtvrip.rus.eng.kuraj-bambey.avi
Формат : AVI
Формат/Информация : Audio Video Interleave
Размер файла : 229 Мбайт
Продолжительность : 21 м.
Общий поток : 1484 Кбит/сек
Программа кодирования : VirtualDubMod 1.5.10.3 | www.virtualdub-fr.org || (build 2550/release)
Библиотека кодирования : VirtualDubMod build 2550/release
Видео
Идентификатор : 0
Формат : MPEG-4 Visual
Профиль формата : Advanced [email protected]
Параметр BVOP формата : 2
Параметр QPel формата : Нет
Параметр GMC формата : Без точки перехода
Параметр матрицы формата : Default (MPEG)
Идентификатор кодека : XVID
Идентификатор кодека/Подсказка : XviD
Продолжительность : 21 м.
Битрейт : 1214 Кбит/сек
Ширина : 720 пикселей
Высота : 400 пикселей
Соотношение сторон : 16:9
Частота кадров : 23,976 кадра/сек
Цветовое пространство : YUV
Субдискретизация насыщенности : 4:2:0
Битовая глубина : 8 бит
Тип развёртки : Прогрессивная
Метод сжатия : С потерями
Бит/(Пиксели*Кадры) : 0.176
Размер потока : 187 Мбайт (82%)
Библиотека кодирования : XviD 1.2.1 (UTC 2008-12-04)
Аудио #1
Идентификатор : 1
Формат : MPEG Audio
Версия формата : Version 1
Профиль формата : Layer 3
Идентификатор кодека : 55
Идентификатор кодека/Подсказка : MP3
Продолжительность : 21 м.
Вид битрейта : Постоянный
Битрейт : 128 Кбит/сек
Каналы : 2 канала
Частота : 48,0 КГц
Метод сжатия : С потерями
Размер потока : 19,8 Мбайт (9%)
Выравнивание : Соединение по промежуткам
Продолжительность промежутка : 42 мс. (1,00 видеокадр)
Время предзагрузки промежутка : 504 мс.
Библиотека кодирования : LAME3.99r
Настройки программы : -m s -V 4 -q 0 -lowpass 17 -b 128
Аудио #2
Идентификатор : 2
Формат : MPEG Audio
Версия формата : Version 1
Профиль формата : Layer 3
Идентификатор кодека : 55
Идентификатор кодека/Подсказка : MP3
Продолжительность : 21 м.
Вид битрейта : Постоянный
Битрейт : 128 Кбит/сек
Каналы : 2 канала
Частота : 48,0 КГц
Метод сжатия : С потерями
Размер потока : 19,8 Мбайт (9%)
Выравнивание : Соединение по промежуткам
Продолжительность промежутка : 42 мс. (1,00 видеокадр)
Время предзагрузки промежутка : 504 мс.
Библиотека кодирования : LAME3.99r
Настройки программы : -m s -V 4 -q 0 -lowpass 17 -b 128
Download / Скачать

Хотите скачать бесплатно? Зарегистрируйтесь на сайте (ссылка на регистрацию). Pirat.ca - самый быстрый торрент трекер в рунете!

Как скачивать  ·   Что такое торрент  ·   Рейтинг и ограничения



Последний раз редактировалось: erchine (2014-05-20 21:09), всего редактировалось 9 раз(а)

ooopts

Штурман

Пост 30-Мар-2014 20:32 (спустя 1 день)

[Q] 

Помойму самый провальный сезон, или просто надоел, но даже уже не улыбает.
[Профиль]  [ЛС] 

wirtual

Гроза морей

Пост 08-Апр-2014 18:55 (спустя 8 дней)

[Q] 

зачетный сериал Всем качать!!!

_________________
не будешь делиться - останешься одноклеточным
[Профиль]  [ЛС] 

erchine ®

44808

Пост 14-Апр-2014 20:38 (спустя 6 дней)

[Q] 

Добавлена 20 серия.
[Профиль]  [ЛС] 

cmt

Штурман

Пост 15-Апр-2014 00:17 (спустя 3 часа)

[Q] 

Мешок картошки!

_________________
Настоящий Сидер с Большой буквы!
Раздаю 24х365 на нормальной скорости
[Профиль]  [ЛС] 

ss80

Флибустьер

36

Пост 27-Апр-2014 17:51 (спустя 12 дней)

[Q] 

Спасибо!!! Супер!
[Профиль]  [ЛС] 

erchine ®

44808

Пост 12-Май-2014 19:29 (спустя 15 дней)

[Q] 

Добавлена 23 серия.
[Профиль]  [ЛС] 

megaToxa

Морской Волк

Пост 12-Май-2014 20:38 (спустя 1 час 9 минут)

[Q] 

Жду новых серий!

_________________
[Профиль]  [ЛС] 

erchine ®

44808

Пост 20-Май-2014 21:10 (спустя 8 дней)

[Q] 

Добавлена 24 серия. Сезон окончен.
[Профиль]  [ЛС] 

Пост 20-Май-2014 21:55 (спустя 44 минуты)

Топик был перенесен из форума Сериалы в эфире в форум Зарубежные сериалы
kugesan
 

kirmiron

Морской Волк

Пост 30-Июл-2014 15:02 (спустя 2 месяца 9 дней)

[Q] 

Отличный сериал Спасибо!!! Автору респект!!!
[Профиль]  [ЛС] 

Pesok

Гроза морей

Пост 07-Сен-2014 21:26 (спустя 1 месяц 8 дней)

[Q] 

спасибо - смешное шоу - новый сезон в этом месяце уже!

_________________
[Профиль]  [ЛС] 

ash81

Лоцман

Пост 27-Янв-2015 09:23 (спустя 4 месяца 19 дней)

[Q] 

интерестно что будет когда они закроются ?
[Профиль]  [ЛС] 

Jackob

Лоцман

Пост 04-Мар-2015 18:08 (спустя 1 месяц 8 дней)

[Q] 

Кайф! Спасибо!
[Профиль]  [ЛС] 

spidercola86

3254

Пост 06-Апр-2015 10:30 (спустя 1 месяц 1 день)

[Q] 

Жаль что не HD.
[Профиль]  [ЛС] 
Показать сообщения:    
Ответить на тему

Текущее время: Сегодня 07:03

Часовой пояс: GMT + 4



Вы не можете начинать темы
Вы не можете отвечать на сообщения
Вы не можете редактировать свои сообщения
Вы не можете удалять свои сообщения
Вы не можете голосовать в опросах
Вы не можете прикреплять файлы к сообщениям
Вы не можете скачивать файлы

▼ Вниз