ML
     
  Уважаемый Гость!
Вы можете поддержать проект и зарегистрироваться у наших партнеров - онлайн-стратегия MyLands. При регистрации в игре Вы получите код, который сможете активировать после регистрации на pirat.ca и получить 1000 дублонов.

Ваш код:
e6008d9811a0b6a1393c3dc51ecd7bc35637bc21
 
     

Демоны да Винчи / Da Vinci's Demons (Сезон 2 / полный / серии: 10 из 10) (Майкл Дж. Бассетт / Michael J. Bassett ...) [2014 г., фэнтези, драма, детектив, ..., HDTVRip] MVO (NewStudio) + Original (Eng)

Ответить на тему
 
Автор
Сообщение

Пост 29-Мар-2014 20:14

[Q] 

kugesan

Демоны да Винчи / Da Vinci's Demons
«History Is a Lie»
- Русское название: Демоны да Винчи
Оригинальное название: Da Vinci's Demons
Страна: США
Год выпуска: 2013
Жанр: фэнтези, драма, детектив, приключения, история, ...-Озвучка: Студия |NewStudio|
Перевод: Многоголосый закадровый, профессиональный
Оригинальный аудиопоток: английский-Режиссер: Майкл Дж. Бассетт / Michael J. Bassett, Дэвид С. Гойер / David S. Goyer, Джэми Пэйн / Jamie Payne ...
В главных ролях: Мистер Джулиан Гиллард, Том Райли, Эллиот Кауэн, Лара Пулвер, Лора Хэддок, Блейк Ритсон, Грегг Чиллин, Том Бейтман, Эрос Влахос, Йен Пири, ...-Описание фильма:
В мире, где мысль и вера находятся под контролем, один человек борется за то, чтобы сделать знания доступными для всех.
Не рассказанная история трагичной жизни Леонардо да Винчи раскрывает портрет молодого человека, которого мучает дар гения. Он - еретик, жаждущий раскрыть ложь религии. Бунтарь, стремящийся низвергнуть элитарное общество. Незаконнорожденный сын, требующий от своего отца признания его прав.
Он оказывается посреди разразившегося урагана страстей, который спал веками. Внутри конфликта между правдой и ложью, религией и интеллектом, прошлым и будущим. Его стремления используются против него противоборствующими силами того времени, вовлекая его в соблазнительную игру, в которой те, кто презирает его ум, нуждаются в нём больше всего.
Леонардо должен вступить в конфронтацию с теми, кто использует историю, чтобы скрыть истину. Вооружённый лишь собственным гением да Винчи в одиночку противостоит тьме как внутри, так и снаружи.
Перед лицом неопределённости будущего его поход за знаниями едва не становится для него погибелью, когда он переходит за грань своего здравомыслия. Да Винчи, словно в омут с головой, уходит в собственные гениальные идеи, воплотив которые, становится необоримой силой, вытаскивающей из темноты и поворачивающей к свету целую эпоху.
Его история становится зеркалом для нашего мира, зовущее всех нас на бой за свободное будущее.-Сезон: 2
Серии: 10 из 10 серий
Продолжительность: ~ 00:54:00 мин серия-Качество видео: HDTVRip
Контейнер: AVI
Видео кодек: XviD
Аудио кодек: MP3
Видео: MPEG-4 Visual at 1514 Кбит/сек: 720 x 400 (1.800) at 25.000 fps, 0.21 Бит/Пиксели
Аудио Rus: MPEG Audio at 128 Кбит/сек: 2 канала, 48,0 КГц |NewStudio|
Аудио Eng: MPEG Audio at 128 Кбит/сек: 2 канала, 48,0 КГц |Original|
Cубтитры: отсутствуют
- -
  • Кровь человеческая (The Blood of Man)
  • Братья по крови (The Blood of Brothers)
  • Путешествие проклятых (The Voyage of the Damned)
  • Край света (The Ends of the Earth)
  • Солнце и Луна (The Sun and the Moon)
  • Веревка мертвых (The Rope of the Dead)
  • Небесный свод (The Vault of Heaven)
  • Падение с небес (The Fall From Heaven)
  • Враги человека (The Enemies of Man)
  • Грехи Дедала (The Sins of Daedalus)
-
Код:
Общее
Полное имя                               : E:\_Сериалы\000\Демоны да Винчи\Da Vinci's Demons-S2(NewStudio)\Da.Vinci's.Demons.s02e01.WEBDLRip.NewStudio.TV.avi
Формат                                   : AVI
Формат/Информация                        : Audio Video Interleave
Размер файла                             : 699 Мбайт
Продолжительность                        : 54 м.
Общий поток                              : 1784 Кбит/сек
Программа кодирования                    : VirtualDubMod 1.5.10.2 (build 2540/release)
Библиотека кодирования                   : VirtualDubMod build 2540/release
Видео
Идентификатор                            : 0
Формат                                   : MPEG-4 Visual
Профиль формата                          : Advanced [email protected]
Параметр BVOP формата                    : 2
Параметр QPel формата                    : Нет
Параметр GMC формата                     : Без точки перехода
Параметр матрицы формата                 : Default (MPEG)
Идентификатор кодека                     : XVID
Идентификатор кодека/Подсказка           : XviD
Продолжительность                        : 54 м.
Битрейт                                  : 1514 Кбит/сек
Ширина                                   : 720 пикселей
Высота                                   : 400 пикселей
Соотношение сторон                       : 16:9
Частота кадров                           : 25,000 кадров/сек
Цветовое пространство                    : YUV
Субдискретизация насыщенности            : 4:2:0
Битовая глубина                          : 8 бит
Тип развёртки                            : Прогрессивная
Метод сжатия                             : С потерями
Бит/(Пиксели*Кадры)                      : 0.210
Размер потока                            : 593 Мбайт (85%)
Библиотека кодирования                   : XviD 64
Аудио #1
Идентификатор                            : 1
Формат                                   : MPEG Audio
Версия формата                           : Version 1
Профиль формата                          : Layer 3
Режим                                    : Joint stereo
Расширение режима                        : MS Stereo
Идентификатор кодека                     : 55
Идентификатор кодека/Подсказка           : MP3
Продолжительность                        : 54 м.
Вид битрейта                             : Постоянный
Битрейт                                  : 128 Кбит/сек
Каналы                                   : 2 канала
Частота                                  : 48,0 КГц
Метод сжатия                             : С потерями
Размер потока                            : 50,2 Мбайт (7%)
Выравнивание                             : Соединение по промежуткам
Продолжительность промежутка             : 40  мс. (1,00 видеокадр)
Время предзагрузки промежутка            : 504  мс.
Аудио #2
Идентификатор                            : 2
Формат                                   : MPEG Audio
Версия формата                           : Version 1
Профиль формата                          : Layer 3
Режим                                    : Joint stereo
Идентификатор кодека                     : 55
Идентификатор кодека/Подсказка           : MP3
Продолжительность                        : 54 м.
Вид битрейта                             : Постоянный
Битрейт                                  : 128 Кбит/сек
Каналы                                   : 2 канала
Частота                                  : 48,0 КГц
Метод сжатия                             : С потерями
Размер потока                            : 50,2 Мбайт (7%)
Выравнивание                             : Соединение по промежуткам
Продолжительность промежутка             : 40  мс. (1,00 видеокадр)
Время предзагрузки промежутка            : 504  мс.
-
-Скриншоты:
-
-Добавлена десятая, заключительная, серия второго сезона
Третий сезон ожидается в марте 2015 года.
Download / Скачать

Хотите скачать бесплатно? Зарегистрируйтесь на сайте (ссылка на регистрацию). Pirat.ca - самый быстрый торрент трекер в рунете!

Как скачивать  ·   Что такое торрент  ·   Рейтинг и ограничения



Последний раз редактировалось: kugesan (2014-06-07 21:07), всего редактировалось 9 раз(а)

h5n1

Гроза морей

483

Пост 30-Мар-2014 06:24 (спустя 10 часов)

[Q] 

зачетно, первый сезон был вполне приличный, имхо Лови бочку

_________________
«Мы находимся здесь, чтобы внести свой вклад в этот мир. Иначе зачем мы здесь?» S.Jobs
[Профиль]  [ЛС] 

volodya_666

Корсар

Пост 30-Мар-2014 08:36 (спустя 2 часа 12 минут)

[Q] 

Спасибо... Посморим...

_________________
[Профиль]  [ЛС] 

ss80

Флибустьер

36

Пост 27-Апр-2014 17:49 (спустя 28 дней)

[Q] 

Спасибо!!! Раздающему респект!
[Профиль]  [ЛС] 

kugesan ®

56689

Пост 07-Июн-2014 21:09 (спустя 1 месяц 10 дней)

[Q] 

Добавлена десятая, заключительная, серия второго сезона
Третий сезон ожидается в марте 2015 года.

_________________

В мире две бесконечности: вселенная и человеческая глупость - Альберт Эйнштен
«Можно вытащить человека из грязи, но нельзя вытащить грязь из человека»!
[Профиль]  [ЛС] 

Simsim

Морской Волк

Пост 08-Июн-2014 10:18 (спустя 13 часов)

[Q] 

Посмотрим СПАСИБО!
[Профиль]  [ЛС] 

Victorsalata

Корсар

Пост 03-Июл-2014 16:43 (спустя 25 дней)

[Q] 

Сериал в достаточной мере основан на исторических событиях и интересен в просмотре.
[Профиль]  [ЛС] 
Показать сообщения:    
Ответить на тему

Текущее время: Сегодня 02:04

Часовой пояс: GMT + 4



Вы не можете начинать темы
Вы не можете отвечать на сообщения
Вы не можете редактировать свои сообщения
Вы не можете удалять свои сообщения
Вы не можете голосовать в опросах
Вы не можете прикреплять файлы к сообщениям
Вы не можете скачивать файлы

▼ Вниз