ML
     
  Уважаемый Гость!
Вы можете поддержать проект и зарегистрироваться у наших партнеров - онлайн-стратегия MyLands. При регистрации в игре Вы получите код, который сможете активировать после регистрации на pirat.ca и получить 1000 дублонов.

Ваш код:
6f9ab67d502902cc72a06c406977ddb589b7f39d
 
     

Любовницы / Mistresses (Чери Ноулан / Cherie Nowlan, Джефф Блекнер / Jeff Bleckner, Холли Дэйл / Holly Dale) [2013 г., триллер, драма, WEB-DLRip] Dub (FoxLife) + Original

Ответить на тему
 
Автор
Сообщение

Пост 31-Мар-2014 20:43

[Q] 

majik

Штурман

Любовницы / Mistresses-- Производство: США, Великобритания, ABC Studios, Ecosse Films
Год выпуска: 2013 г.
Жанр: триллер, драма
Продолжительность: 00:43:00
Мировая премьера: 5 марта 2013
Российская премьера: 2 сентября 2013
Перевод: Профессиональный (полное дублирование)
Режиссер: Чери Ноулан, Джефф Блекнер, Холли Дэйл / Cherie Nowlan, Jeff BlecknerHolly, Dale-В ролях: Алисса Милано, Рошелль Эйтс, Джесс Макаллан, Ким Юнджин, Корина Мессиа, Эрик Стоклин, Эшли Ньюбро, Темина Санни, Джейден Уайт, Бретт Такер
Описание: В этой картине главными героинями выступают четыре девушки. Эти красавицы дружат между собой уже далеко не один год. Они молоды, красивы и умны, но это, ни в коем случае не мешает девушкам страдать от того, что у них никак не складываются отношения. Точнее, отношения-то есть, но все они по каким-то причинам опасные и сложные. С чем это связанно? Просто напросто главным героиням уже хочется один раз завести настоящие отношения, крепкие, в общем, завести семью. Но получится ли это у них, пока еще никому неизвестно!-Качество видео: WEB-DLRip
Контейнер: AVI
Видео кодек: XviD
Аудио кодек: MP3
Видео: 720х400, 1348 Кбит/сек, 23,976 кадра/сек, 0.195 Бит/Пик
Аудио: 128 Кбит/сек, 2 канала, 48,0 КГц
Аудио #2: 128 Кбит/сек, 2 канала, 48,0 КГц
Cубтитры: отсутствуют
Общее
Полное имя : G:\Cкачка торрент\Mistresses.s01 .WEBDLRip\Mistresses.s01e01.WEBDLRip.NewStudio.TV.avi
Формат : AVI
Формат/Информация : Audio Video Interleave
Размер файла : 499 Мбайт
Продолжительность : 43 м.
Общий поток : 1618 Кбит/сек
Программа кодирования : VirtualDubMod 1.5.10.2 (build 2540/release)
Библиотека кодирования : VirtualDubMod build 2540/release
Видео
Идентификатор : 0
Формат : MPEG-4 Visual
Профиль формата : Advanced [email protected]
Параметр BVOP формата : 2
Параметр QPel формата : Нет
Параметр GMC формата : Без точки перехода
Параметр матрицы формата : Default (MPEG)
Идентификатор кодека : XVID
Идентификатор кодека/Подсказка : XviD
Продолжительность : 43 м.
Битрейт : 1348 Кбит/сек
Ширина : 720 пикселей
Высота : 400 пикселей
Соотношение сторон : 16:9
Частота кадров : 23,976 кадра/сек
Цветовое пространство : YUV
Субдискретизация насыщенности : 4:2:0
Битовая глубина : 8 бит
Тип развёртки : Прогрессивная
Метод сжатия : С потерями
Бит/(Пиксели*Кадры) : 0.195
Размер потока : 416 Мбайт (83%)
Библиотека кодирования : XviD 64
Аудио #1
Идентификатор : 1
Формат : MPEG Audio
Версия формата : Version 1
Профиль формата : Layer 3
Режим : Joint stereo
Расширение режима : MS Stereo
Идентификатор кодека : 55
Идентификатор кодека/Подсказка : MP3
Продолжительность : 43 м.
Вид битрейта : Постоянный
Битрейт : 128 Кбит/сек
Каналы : 2 канала
Частота : 48,0 КГц
Метод сжатия : С потерями
Размер потока : 39,5 Мбайт (8%)
Выравнивание : Соединение по промежуткам
Продолжительность промежутка : 42 мс. (1,00 видеокадр)
Время предзагрузки промежутка : 504 мс.
Аудио #2
Идентификатор : 2
Формат : MPEG Audio
Версия формата : Version 1
Профиль формата : Layer 3
Режим : Joint stereo
Идентификатор кодека : 55
Идентификатор кодека/Подсказка : MP3
Продолжительность : 43 м.
Вид битрейта : Постоянный
Битрейт : 128 Кбит/сек
Каналы : 2 канала
Частота : 48,0 КГц
Метод сжатия : С потерями
Размер потока : 39,5 Мбайт (8%)
Выравнивание : Соединение по промежуткам
Продолжительность промежутка : 42 мс. (1,00 видеокадр)
Время предзагрузки промежутка : 504 мс.
Download / Скачать

Хотите скачать бесплатно? Зарегистрируйтесь на сайте (ссылка на регистрацию). Pirat.ca - самый быстрый торрент трекер в рунете!

Как скачивать  ·   Что такое торрент  ·   Рейтинг и ограничения



Последний раз редактировалось: majik (2014-04-01 09:42), всего редактировалось 2 раз(а)

Пост 01-Апр-2014 20:24 (спустя 23 часа)

Топик был перенесен из форума Зарубежные сериалы (Трюм) в форум Зарубежные сериалы
kugesan
 
Показать сообщения:    
Ответить на тему

Текущее время: Сегодня 16:28

Часовой пояс: GMT + 4



Вы не можете начинать темы
Вы не можете отвечать на сообщения
Вы не можете редактировать свои сообщения
Вы не можете удалять свои сообщения
Вы не можете голосовать в опросах
Вы не можете прикреплять файлы к сообщениям
Вы не можете скачивать файлы

▼ Вниз