ML
     
  Уважаемый Гость!
Вы можете поддержать проект и зарегистрироваться у наших партнеров - онлайн-стратегия MyLands. При регистрации в игре Вы получите код, который сможете активировать после регистрации на pirat.ca и получить 1000 дублонов.

Ваш код:
cc3be08b7507661c03e0a2f582d0da3a659ea55a
 
     

Белый Воротничок / White Collar / Сезон: 3 / Серии: 1-16 из 16 (Джон Т. Кречмер / John T. Kretchmer, Рассел Ли Файн / Russell Lee Fine, Пол Холахан / Paul Holahan) [2011 г., детектив, криминал, драма, комедия, WEB-DL] DVO (NewStudio) + Sub (Rus, Eng)

Ответить на тему
 
Автор
Сообщение

Пост 04-Апр-2014 15:59

[Q] 

majik

Штурман

-Белый Воротничок / White Collar-- Производство: США, Fox Television Studios, Jeff Eastin & Warrior George Productions
Жанр: детектив, криминал, драма, комедия
Год выпуска: 2011 г.
Продолжительность: 00:43:00
Мировая премьера: 7 июня 2011
Перевод: Профессиональный (двухголосый, закадровый) [NewStudio]
Режиссер: Джон Т. Кречмер / John T. Kretchmer, Рассел Ли Файн / Russell Lee Fine, Пол Холахан / Paul Holahan-В ролях: Мэтт Бомер, Тим ДиКей, Уилли Гарсон, Тиффани Тиссен, Шариф Аткинс, Марша Томасон, Хилари Бертон, Дайэнн Кэррол, Джеймс Ребхорн, Натали Моралес-Описание: Сериал рассказывает о сотрудничестве гениального мошенника и агента ФБР. Нил Кэффри, невероятно обаятельный преступный ум, наконец-то был пойман своим извечным врагом, отличным агентом государственной безопасности Питером Берком. Когда Нил бежит из тюрьмы, чтобы найти свою пропавшую любовь, Питер ловит его еще раз. Нил предлагает ему не торопиться с отправкой в тюрьму, и рассмотреть возможность сотрудничества. Ведь Нил мог бы помочь словить самых “элитных” преступников, “белых воротничков” преступного мира. Питер понимает, что интуиция и преступный опыт Нила, которых нет у законопослушного агента, могут стать хорошим подспорьем в борьбе с криминалом.-
Качество видео: WEB-DL
Контейнер: AVI
Видео кодек: XviD
Аудио кодек: AC3
Видео: 720 х 400, 1830 kbps, 23.976 fps
Аудио: 384 kbps, 6 ch, 48 kHz, AC3 Dolby Digital
Аудио #2: 384 kbps, 6 ch, 48 kHz, AC3 Dolby Digital
Cубтитры: русские
Формат субтитров: softsub (SRT)
Доп. информация о субтитрах: (Русские (TrueTransLate) (С 1-13 серии) / Английские *.srt)
По сюжету Нил Кэфри начинает работать на ФБР через 4 года заключения. Фрэнк Абигнейл, всемирно известный «белый воротничок» также начал сотрудничать с ФБР после 4 лет заключения.
Общее
Полное имя : G:\Cкачка торрент\Белый воротничок 3 сезон [pirat.ca]. [WEB-DLRip]\White.Collar.S03E01.[pirat.ca].WEB-DLRip.Rus.[NewStudio].Eng.avi
Формат : AVI
Формат/Информация : Audio Video Interleave
Размер файла : 801 Мбайт
Продолжительность : 42 м.
Общий поток : 2612 Кбит/сек
Программа кодирования : VirtualDubMod 1.5.10.2 (build 2540/release)
Библиотека кодирования : VirtualDubMod build 2540/release
Видео
Идентификатор : 0
Формат : MPEG-4 Visual
Профиль формата : Advanced [email protected]
Параметр BVOP формата : 3
Параметр QPel формата : Нет
Параметр GMC формата : Без точки перехода
Параметр матрицы формата : Default (MPEG)
Режим смешивания : Сжатый битовый поток
Идентификатор кодека : XVID
Идентификатор кодека/Подсказка : XviD
Продолжительность : 42 м.
Битрейт : 1830 Кбит/сек
Ширина : 720 пикселей
Высота : 400 пикселей
Соотношение сторон : 16:9
Частота кадров : 23,976 кадра/сек
Цветовое пространство : YUV
Субдискретизация насыщенности : 4:2:0
Битовая глубина : 8 бит
Тип развёртки : Прогрессивная
Метод сжатия : С потерями
Бит/(Пиксели*Кадры) : 0.265
Размер потока : 561 Мбайт (70%)
Библиотека кодирования : XviD 1.2.1 (UTC 2008-12-04)
Аудио #1
Идентификатор : 1
Формат : AC-3
Формат/Информация : Audio Coding 3
Расширение режима : CM (complete main)
Параметр Endianness формата : Big
Идентификатор кодека : 2000
Продолжительность : 42 м.
Вид битрейта : Постоянный
Битрейт : 384 Кбит/сек
Каналы : 6 каналов
Расположение каналов : Front: L C R, Side: L R, LFE
Частота : 48,0 КГц
Битовая глубина : 16 бит
Метод сжатия : С потерями
Размер потока : 118 Мбайт (15%)
Выравнивание : Разделение по промежуткам
Продолжительность промежутка : 42 мс. (1,00 видеокадр)
Время предзагрузки промежутка : 500 мс.
Аудио #2
Идентификатор : 2
Формат : AC-3
Формат/Информация : Audio Coding 3
Расширение режима : CM (complete main)
Параметр Endianness формата : Big
Идентификатор кодека : 2000
Продолжительность : 42 м.
Вид битрейта : Постоянный
Битрейт : 384 Кбит/сек
Каналы : 6 каналов
Расположение каналов : Front: L C R, Side: L R, LFE
Частота : 48,0 КГц
Битовая глубина : 16 бит
Метод сжатия : С потерями
Размер потока : 118 Мбайт (15%)
Выравнивание : Разделение по промежуткам
Продолжительность промежутка : 42 мс. (1,00 видеокадр)
Время предзагрузки промежутка : 500 мс.
Download / Скачать

Хотите скачать бесплатно? Зарегистрируйтесь на сайте (ссылка на регистрацию). Pirat.ca - самый быстрый торрент трекер в рунете!

Как скачивать  ·   Что такое торрент  ·   Рейтинг и ограничения

Пост 04-Апр-2014 16:20 (спустя 21 минута)

Топик был перенесен из форума Зарубежные сериалы (Трюм) в форум Зарубежные сериалы
kugesan
 

Katzen

Лоцман

Пост 21-Апр-2014 22:43 (спустя 17 дней)

[Q] 

Станьте на раздачу, пожалуйста
[Профиль]  [ЛС] 
Показать сообщения:    
Ответить на тему

Текущее время: Сегодня 05:09

Часовой пояс: GMT + 4



Вы не можете начинать темы
Вы не можете отвечать на сообщения
Вы не можете редактировать свои сообщения
Вы не можете удалять свои сообщения
Вы не можете голосовать в опросах
Вы не можете прикреплять файлы к сообщениям
Вы не можете скачивать файлы

▼ Вниз