ML
     
  Уважаемый Гость!
Вы можете поддержать проект и зарегистрироваться у наших партнеров - онлайн-стратегия MyLands. При регистрации в игре Вы получите код, который сможете активировать после регистрации на pirat.ca и получить 1000 дублонов.

Ваш код:
9cfe162481db953a6549f32179d7b3900b8b8643
 
     

Белый Воротничок / White Collar / Сезон: 4 / Серии: 1-16 из 16 (Джон Т. Кречмер / John T. Kretchmer, ...) [2012 г., детектив, криминал, драма, комедия, WEB-DL] MVO (NewStudio @ Rumedia)

Ответить на тему
 
Автор
Сообщение

Пост 04-Апр-2014 19:48

[Q] 

majik

Штурман

-Белый Воротничок / White Collar-- Производство: США, Fox Television Studios, Jeff Eastin & Warrior George Productions
Жанр: детектив, криминал, драма, комедия
Год выпуска: 2012 г.
Продолжительность: 00:43:00
Мировая премьера: 10 июля 2012
Перевод: Профессиональный (многоголосый, закадровый) [NewStudio @ Rumedia]
Режиссер: Джон Т. Кречмер / John T. Kretchmer, Рассел Ли Файн / Russell Lee Fine, Пол Холахан / Paul Holahan-В ролях: Мэтт Бомер, Тим ДиКей, Уилли Гарсон, Тиффани Тиссен, Шариф Аткинс, Марша Томасон, Хилари Бертон, Дайэнн Кэррол, Джеймс Ребхорн, Натали Моралес-Описание: Нил Кэфри, невероятно обаятельный преступный ум, наконец-то был пойман своим извечным врагом, агентом ФБР Питером Бёрком. Когда Нил бежит из тюрьмы, чтобы найти свою пропавшую любовь, Питер ловит его еще раз. Но Кэффри предлагает ему не торопиться с отправкой в тюрьму, и рассмотреть возможность сотрудничества. Ведь Нил мог бы помочь поймать самых «элитных» преступников, «белых воротничков» преступного мира. Питер, понимая, что интуиция и преступный опыт Нила, которых нет у законопослушного агента, могут стать хорошим подспорьем в борьбе с криминалом, соглашается.-
Качество видео: WEB-DL
Контейнер: AVI
Видео кодек: XviD
Аудио кодек: AC3
Видео: 720x400, 2 000 Kbps, 23.976 fps
Аудио: 384 Kbps, 6 ch, 48.0 KHz
Аудио #2: 384 Kbps, 6 ch, 48.0 KHz
Cубтитры: отсутствуют
По сюжету Нил Кэфри начинает работать на ФБР через 4 года заключения. Фрэнк Абигнейл, всемирно известный «белый воротничок» также начал сотрудничать с ФБР после 4 лет заключения.
Общее
Полное имя : G:\Cкачка торрент\Белый воротничок 4 Cезон [pirat.ca].[[NewStudioTV @ Rumedia]\White.Collar.s04e01.[pirat.ca].web-dlrip.avi
Формат : AVI
Формат/Информация : Audio Video Interleave
Размер файла : 853 Мбайт
Продолжительность : 42 м.
Общий поток : 2782 Кбит/сек
Программа кодирования : VirtualDubMod 1.5.10.3 | www.virtualdub-fr.org || (build 2550/release)
Библиотека кодирования : VirtualDubMod build 2550/release
Видео
Идентификатор : 0
Формат : MPEG-4 Visual
Профиль формата : Advanced [email protected]
Параметр BVOP формата : 1
Параметр QPel формата : Нет
Параметр GMC формата : Без точки перехода
Параметр матрицы формата : Выборочная
Идентификатор кодека : XVID
Идентификатор кодека/Подсказка : XviD
Продолжительность : 42 м.
Битрейт : 2000 Кбит/сек
Ширина : 720 пикселей
Высота : 400 пикселей
Соотношение сторон : 16:9
Частота кадров : 23,976 кадра/сек
Цветовое пространство : YUV
Субдискретизация насыщенности : 4:2:0
Битовая глубина : 8 бит
Тип развёртки : Прогрессивная
Метод сжатия : С потерями
Бит/(Пиксели*Кадры) : 0.290
Размер потока : 613 Мбайт (72%)
Библиотека кодирования : XviD 65
Аудио #1
Идентификатор : 1
Формат : AC-3
Формат/Информация : Audio Coding 3
Расширение режима : CM (complete main)
Параметр Endianness формата : Big
Идентификатор кодека : 2000
Продолжительность : 42 м.
Вид битрейта : Постоянный
Битрейт : 384 Кбит/сек
Каналы : 6 каналов
Расположение каналов : Front: L C R, Side: L R, LFE
Частота : 48,0 КГц
Битовая глубина : 16 бит
Метод сжатия : С потерями
Размер потока : 118 Мбайт (14%)
Выравнивание : Разделение по промежуткам
Продолжительность промежутка : 42 мс. (1,00 видеокадр)
Время предзагрузки промежутка : 500 мс.
Аудио #2
Идентификатор : 2
Формат : AC-3
Формат/Информация : Audio Coding 3
Расширение режима : CM (complete main)
Параметр Endianness формата : Big
Идентификатор кодека : 2000
Продолжительность : 42 м.
Вид битрейта : Постоянный
Битрейт : 384 Кбит/сек
Каналы : 6 каналов
Расположение каналов : Front: L C R, Side: L R, LFE
Частота : 48,0 КГц
Битовая глубина : 16 бит
Метод сжатия : С потерями
Размер потока : 118 Мбайт (14%)
Выравнивание : Разделение по промежуткам
Продолжительность промежутка : 42 мс. (1,00 видеокадр)
Время предзагрузки промежутка : 500 мс.
Download / Скачать

Хотите скачать бесплатно? Зарегистрируйтесь на сайте (ссылка на регистрацию). Pirat.ca - самый быстрый торрент трекер в рунете!

Как скачивать  ·   Что такое торрент  ·   Рейтинг и ограничения

Пост 04-Апр-2014 20:58 (спустя 1 час 9 минут)

Топик был перенесен из форума Зарубежные сериалы (Трюм) в форум Зарубежные сериалы
kugesan
 
Показать сообщения:    
Ответить на тему

Текущее время: Сегодня 06:05

Часовой пояс: GMT + 4



Вы не можете начинать темы
Вы не можете отвечать на сообщения
Вы не можете редактировать свои сообщения
Вы не можете удалять свои сообщения
Вы не можете голосовать в опросах
Вы не можете прикреплять файлы к сообщениям
Вы не можете скачивать файлы

▼ Вниз