ML
     
  Уважаемый Гость!
Вы можете поддержать проект и зарегистрироваться у наших партнеров - онлайн-стратегия MyLands. При регистрации в игре Вы получите код, который сможете активировать после регистрации на pirat.ca и получить 1000 дублонов.

Ваш код:
8dcb839cf1b47e56d6dc42d17f26b3e4822e9aee
 
     

Потерянная комната / The Lost Room / Сезон: 1 / Серии: 1-3 (3) (Крэйг Р. Бэксли / Craig R. Baxley, Майкл В. Уоткинс / Michael W. Watkins) [2006 г., фантастика, фэнтези, боевик, детектив, WEBRip, 1080p] MVO + Original (Eng) + Sub (Eng)

Ответить на тему
 
Автор
Сообщение

Пост 07-Апр-2014 10:17

[Q] 

TERMOS

Легенда

-Потерянная комната / The Lost Room
«Некоторые двери лучше не открывать.»
-- Производство: США
Жанр: фантастика, фэнтези, боевик, детектив
Год выпуска: 2006 г.
Продолжительность: 3 x ~01:27:00
Мировая премьера: 11 декабря 2006
Перевод: Профессиональный (многоголосый, закадровый)
Оригинальный аудиопоток: английский
Режиссер: Крэйг Р. Бэксли / Craig R. Baxley, Майкл В. Уоткинс / Michael W. Watkins-В ролях: Питер Краузе, Джулианна Маргулис, Питер Джекобсон, Деннис Кристофер, Эйприл Грэйс, Эль Фаннинг, Кевин Поллак, Бенжамин Петри, Джейсон Дуглас, Кристофер Бауэр-Описание: Что если весь мир устроен не так просто, как нам кажется? Что если самые простые бытовые предметы обладают свойствами, которые не поддаются объяснению? И что если самый близкий Вам человек оказался в плену этих мистических событий?
    Предлагаем вам присоединиться к детективу Джо Миллеру и другим героям новейшего телефильма «Пропавшая комната» и узнать всю правду о том, что случилось в десятом номере мотеля «Саншайн» и как это изменило судьбу всего мира.
- - -Качество видео: WEBRip
Контейнер: MKV
Стандарт разрешения: 1080p
Видео кодек: H.264/AVC
Аудио кодек: AC3
Видео: 1920x1080 at 23.976 fps, ~6500 kbps avg
Аудио: Russian: 48 kHz, AC3, 3/2 (L,C,R,l,r) + LFE ch, ~384.00 kbps avg
Аудио #2: English: 48 kHz, AC3, 3/2 (L,C,R,l,r) + LFE ch, ~448.00 kbps avg
Cубтитры: английские
01: The Key and the Clock / Ключ и Часы
02: The Comb and the Box / Расческа и Шкатулка
03: The Eye and the Prime Object / Глаз и Главный объект
Код:
General
Complete name                    : Y:\Uploads\Pirat.Ca\The Lost Room (2006)[1080p.WEB-DLRip]\The.Lost.Room.Part.1.1080p.WEB-DLRip.Rus.Eng.mkv
Format                           : Matroska
File size                        : 4.58 GiB
Duration                         : 1h 27mn
Overall bit rate                 : 7 485 Kbps
Movie name                       : The Lost Room (2006) Part 1 - Release for HDCLUB
Encoded date                     : UTC 2013-07-17 10:48:18
Writing application              : mkvmerge v6.3.0 ('You can't stop me!') built on Jun 28 2013 20:09:41
Writing library                  : libebml v1.3.0 + libmatroska v1.4.0
Video
ID                               : 1
Format                           : AVC
Format/Info                      : Advanced Video Codec
Format profile                   : [email protected]
Format settings, CABAC           : Yes
Format settings, ReFrames        : 4 frames
Muxing mode                      : Container [email protected]
Codec ID                         : V_MPEG4/ISO/AVC
Duration                         : 1h 27mn
Bit rate                         : 6 504 Kbps
Width                            : 1 920 pixels
Height                           : 1 080 pixels
Display aspect ratio             : 16:9
Frame rate                       : 23.976 fps
Color space                      : YUV
Chroma subsampling               : 4:2:0
Bit depth                        : 8 bits
Scan type                        : Progressive
Bits/(Pixel*Frame)               : 0.131
Stream size                      : 3.98 GiB (87%)
Title                            : The Lost Room Part 1: The Key and the Clock / Ключ и Часы - Release for HDCLUB
Language                         : English
Audio #1
ID                               : 2
Format                           : AC-3
Format/Info                      : Audio Coding 3
Mode extension                   : CM (complete main)
Codec ID                         : A_AC3
Duration                         : 1h 27mn
Bit rate mode                    : Constant
Bit rate                         : 384 Kbps
Channel(s)                       : 6 channels
Channel positions                : Front: L C R, Side: L R, LFE
Sampling rate                    : 48.0 KHz
Bit depth                        : 16 bits
Stream size                      : 241 MiB (5%)
Language                         : Russian
Audio #2
ID                               : 3
Format                           : AC-3
Format/Info                      : Audio Coding 3
Mode extension                   : CM (complete main)
Codec ID                         : A_AC3
Duration                         : 1h 27mn
Bit rate mode                    : Constant
Bit rate                         : 448 Kbps
Channel(s)                       : 6 channels
Channel positions                : Front: L C R, Side: L R, LFE
Sampling rate                    : 48.0 KHz
Bit depth                        : 16 bits
Stream size                      : 281 MiB (6%)
Language                         : English
Text
ID                               : 4
Format                           : UTF-8
Codec ID                         : S_TEXT/UTF8
Codec ID/Info                    : UTF-8 Plain Text
Language                         : English
Menu
00:00:00.000                     : en:Начальные титры
00:00:45.712                     : en:Ключ
00:04:48.622                     : en:Тела
00:12:16.069                     : en:Дверь
00:21:46.772                     : en:Игра
00:29:57.996                     : en:Автобусный билет
00:34:17.255                     : en:Объекты
00:40:20.451                     : en:Склад
00:42:50.835                     : en:Ручка
00:45:10.074                     : en:Исчезновение
00:46:55.846                     : en:Поиски
00:52:42.359                     : en:Уцелевший
01:01:01.324                     : en:Проныра
01:06:17.774                     : en:Главный объект
01:10:04.200                     : en:Вторжение
01:16:25.081                     : en:Выход
01:18:52.194                     : en:Сейф
01:21:37.359                     : en:Теория
01:23:33.008                     : en:Решение
01:26:44.433                     : en:Титры
Download / Скачать

Хотите скачать бесплатно? Зарегистрируйтесь на сайте (ссылка на регистрацию). Pirat.ca - самый быстрый торрент трекер в рунете!

Как скачивать  ·   Что такое торрент  ·   Рейтинг и ограничения



Последний раз редактировалось: TERMOS (2014-04-07 10:24), всего редактировалось 1 раз

TERMOS ®

Легенда

12068

Пост 07-Апр-2014 10:22 (спустя 4 минуты)

[Q] 

Очень сильная вещь! Думаю, что любители альтернативной фантастики оценят. ay

_________________
[Профиль]  [ЛС] 

Пост 07-Апр-2014 10:31 (спустя 8 минут)

Топик был перенесен из форума Зарубежные сериалы (Трюм) в форум Зарубежные сериалы
kugesan
 

Раемия

Флибустьер

Пост 07-Апр-2014 10:48 (спустя 26 минут)

[Q] 

Ой,я смотрела....отличный фильм!Советую посмотреть! Всем качать!!!

_________________
Любите кроликов!!!…и они отплатят вам тем же…
[Профиль]  [ЛС] 

silver1223

Лоцман

Пост 07-Апр-2014 11:32 (спустя 43 минуты)

[Q] 

Класный фильм, любителям фантастики советую посмотреть.
[Профиль]  [ЛС] 

TERMOS ®

Легенда

12068

Пост 07-Апр-2014 13:14 (спустя 1 час 42 минуты)

[Q] 

Ну коль пошла такая пьянка.... ))) Пираты, я щас по сусекам поскребу.... Есть заначки у меня. ОООооо!!! Дюна!!! Щас наложу... dg Тяжёлый рип, но он того стоит. ay

_________________
[Профиль]  [ЛС] 

olipov

Легенда

Пост 08-Апр-2014 00:14 (спустя 10 часов)

[Q] 

Спасибо!!!
[Профиль]  [ЛС] 

DocSoft

Гроза морей

71

Пост 08-Апр-2014 01:00 (спустя 46 минут)

[Q] 

На кинопоиске смотрю рицензии ок. А Я пропустил. Спасибо наверстаю упущенное !!! Лови бочку

_________________
Всего одна Любовь !
[Профиль]  [ЛС] 

Nalim22

Лоцман

Пост 10-Апр-2014 21:49 (спустя 2 дня 20 часов)

[Q] 

На Лосте есть полная версия сериала. Тут только 3 серии
[Профиль]  [ЛС] 

TERMOS ®

Легенда

12068

Пост 11-Апр-2014 13:51 (спустя 16 часов)

[Q] 

Nalim22, не. На Лосте серии разрезаны на 2 части. Список серий.

_________________
[Профиль]  [ЛС] 

li_stitch

Корсар

Пост 27-Апр-2015 16:03 (спустя 1 год)

[Q] 

Даа, наконец нашел!!! Спасибо!!!
[Профиль]  [ЛС] 

NIKROLUNGER

Флибустьер

60

Пост 12-Май-2016 16:32 (спустя 1 год)

[Q] 

Вещь сильная, отличный фильм ay
[Профиль]  [ЛС] 
Показать сообщения:    
Ответить на тему

Текущее время: Сегодня 04:13

Часовой пояс: GMT + 4



Вы не можете начинать темы
Вы не можете отвечать на сообщения
Вы не можете редактировать свои сообщения
Вы не можете удалять свои сообщения
Вы не можете голосовать в опросах
Вы не можете прикреплять файлы к сообщениям
Вы не можете скачивать файлы

▼ Вниз