ML
     
  Уважаемый Гость!
Вы можете поддержать проект и зарегистрироваться у наших партнеров - онлайн-стратегия MyLands. При регистрации в игре Вы получите код, который сможете активировать после регистрации на pirat.ca и получить 1000 дублонов.

Ваш код:
47bfc18b89c74e4ae0d974e9b6943639e2bff08e
 
     

Настоящая Кровь / True Blood / Сезон: 2 / Серии: 1-12 (Майкл Леманн / Michael Lehmann, ...) [2009 г., фэнтези, триллер, драма, мелодрама, детектив, BDRip] DVO [Sub (Eng)]

Ответить на тему
 
Автор
Сообщение

Пост 09-Апр-2014 20:12

[Q] 

DrSuicide

Штурман

-Настоящая Кровь / True Blood-- Производство: Home Box Office (HBO), Your Face Goes Here Entertainment
Жанр: фэнтези, триллер, драма, мелодрама, детектив
Год выпуска: 2009 г.
Продолжительность: 0:57:55
Перевод: Профессиональный (двухголосый, закадровый)
Перевод 2: Отсутствует
Режиссер: Майкл Леманн / Michael Lehmann, Скотт Уинант / Scott Winant, Даниэль Минахан / Daniel Minahanс-В ролях: Анна Пакуин, Стивен Мойер, Сэм Трэммелл, Райан Квонтен, Рутина Уэсли, Кэрри Престон.-Описание: События разворачиваются в небольшом городке в пригороде Нового Орлеана. С тех пор, как японцы изобрели синтетическую кровь «True Blood», у вампиров отпала необходимость убивать простых смертных. Два года назад вампиры покинули свои гробы и официально заявили о своих правах. Но как водится, не все люди оказались готовы к этому, и не все вампиры были рады отказаться от привычного лакомства. Соки Стэкхауз — обычная официантка из пригородного кафе, наделенная способностью читать мысли окружающих, знакомится с «хорошим» вампиром Биллом Комтоном. И сразу приобретает много врагов из «плохих парней».-
Качество видео: BDRip
Контейнер: AVI
Видео кодек: XviD
Аудио кодек: AC3
Видео: 720x400, 1951 kbps avg, 23.976 fps, 0.283 Бит/Пиксели
Аудио: 192 kbps, 2/0 (L,R) ch, 48 kHz
Cубтитры: английские
Формат субтитров: softsub (SRT)
Общее
Полное имя : D:\Video\Сериалы\Настоящая кровь- True Blood\S02E01-12\Nastoyashaya.krov.S02E01.2009.RUS.BDRip.XviD.AC3.-HELLYWOOD.avi
Формат : AVI
Формат/Информация : Audio Video Interleave
Размер файла : 892 Мбайт
Продолжительность : 57 м.
Общий поток : 2153 Кбит/сек
Название фильма : Настоящая кровь (Сезон 2) / True Blood (Season 2) (2009) BDRip от HELLYWOOD
Режиссёр : Serval
Программа кодирования : VirtualDubMod 1.5.10.2 (build 2542/release)
Примечание : BD-Remux 1080p
Видео
Идентификатор : 0
Формат : MPEG-4 Visual
Профиль формата : Advanced [email protected]
Параметр BVOP формата : 1
Параметр QPel формата : Нет
Параметр GMC формата : Без точки перехода
Параметр матрицы формата : Выборочная
Идентификатор кодека : XVID
Идентификатор кодека/Подсказка : XviD
Продолжительность : 57 м.
Битрейт : 1952 Кбит/сек
Ширина : 720 пикселей
Высота : 400 пикселей
Соотношение сторон : 16:9
Частота кадров : 23,976 кадра/сек
Цветовое пространство : YUV
Субдискретизация насыщенности : 4:2:0
Битовая глубина : 8 бит
Тип развёртки : Прогрессивная
Метод сжатия : С потерями
Бит/(Пиксели*Кадры) : 0.283
Размер потока : 809 Мбайт (91%)
Библиотека кодирования : XviD 64
Аудио
Идентификатор : 1
Формат : AC-3
Формат/Информация : Audio Coding 3
Расширение режима : CM (complete main)
Параметр Endianness формата : Big
Идентификатор кодека : 2000
Продолжительность : 57 м.
Вид битрейта : Постоянный
Битрейт : 192 Кбит/сек
Каналы : 2 канала
Расположение каналов : Front: L R
Частота : 48,0 КГц
Битовая глубина : 16 бит
Метод сжатия : С потерями
Размер потока : 79,5 Мбайт (9%)
Выравнивание : Разделение по промежуткам
Продолжительность промежутка : 42 мс. (1,00 видеокадр)
Время предзагрузки промежутка : 500 мс.
Download / Скачать

Хотите скачать бесплатно? Зарегистрируйтесь на сайте (ссылка на регистрацию). Pirat.ca - самый быстрый торрент трекер в рунете!

Как скачивать  ·   Что такое торрент  ·   Рейтинг и ограничения



Последний раз редактировалось: DrSuicide (2014-04-09 21:07), всего редактировалось 1 раз

Пост 09-Апр-2014 22:27 (спустя 2 часа 15 минут)

Топик был перенесен из форума Зарубежные сериалы (Трюм) в форум Зарубежные сериалы
kugesan
 

DrSuicide ®

Штурман

28

Пост 10-Апр-2014 08:09 (спустя 11 часов)

[Q] 

Уважаемый модератор. Проблема с раздачей у меня оказывается на уровне провайдера, какая то белиберда с серыми ПИ адресами и тд. Полноценно я могу только скачивать а вот с раздачей труднее... постараюсь этот вопрос решить в ближайшее время. Прошу прощения у желающих скачать, как решу вопрос с отдачей, выложу остальные сезоны...
[Профиль]  [ЛС] 

malefik36

Морской Волк

Пост 10-Апр-2014 16:11 (спустя 8 часов)

[Q] 

ждемс.
[Профиль]  [ЛС] 

DrSuicide ®

Штурман

28

Пост 13-Апр-2014 12:13 (спустя 2 дня 20 часов)

[Q] 

Вроде бы разобрался. Купил роутер ZyXEL со встроенным торрент клиентом, подключил к неmу внешний диск. Теперь могу раздавать и качать не включая компьютер ;)
[Профиль]  [ЛС] 

Touji

Лоцман

Пост 27-Июн-2014 18:58 (спустя 2 месяца 14 дней)

[Q] 

раздайте а? скачаю - встану на раздачу
[Профиль]  [ЛС] 

Yuberion3000

Штурман

Пост 26-Июл-2014 21:45 (спустя 29 дней)

[Q] 

ну чо- кастрируем аффтара?
[Профиль]  [ЛС] 

SantaZombie

Шкипер

Пост 17-Авг-2014 20:53 (спустя 21 день)

[Q] 

Очень хотелось скачать, но так как раздающих нет придётся искать на других трекерах!
Как говориться спрос рождает предложение...

_________________
[Профиль]  [ЛС] 

kugesan

56710

Пост 17-Авг-2014 23:09 (спустя 2 часа 15 минут)

[Q] 

Ближайшее время попробую исправить положение
Добавлено спустя 1 час 41 минута 2 секунды:
Разбирайте. Временно на раздаче.
Раздаю только днем.

_________________

В мире две бесконечности: вселенная и человеческая глупость - Альберт Эйнштен
«Можно вытащить человека из грязи, но нельзя вытащить грязь из человека»!
[Профиль]  [ЛС] 

Андря

8419

Пост 18-Авг-2014 12:08 (спустя 12 часов)

[Q] 

569446
Разбирайте. Временно на раздаче.
Раздаю только днем.
а да, kugesan, а да молодец.

_________________
Като Тешекика
[Профиль]  [ЛС] 

янка-сан

Гроза морей

Пост 18-Дек-2015 20:11 (спустя 1 год 4 месяца)

[Q] 

неплохо Лови бочку
[Профиль]  [ЛС] 
Показать сообщения:    
Ответить на тему

Текущее время: Сегодня 07:00

Часовой пояс: GMT + 4



Вы не можете начинать темы
Вы не можете отвечать на сообщения
Вы не можете редактировать свои сообщения
Вы не можете удалять свои сообщения
Вы не можете голосовать в опросах
Вы не можете прикреплять файлы к сообщениям
Вы не можете скачивать файлы

▼ Вниз