ML
     
  Уважаемый Гость!
Вы можете поддержать проект и зарегистрироваться у наших партнеров - онлайн-стратегия MyLands. При регистрации в игре Вы получите код, который сможете активировать после регистрации на pirat.ca и получить 1000 дублонов.

Ваш код:
2932e5898d0a27592397f70b82a5834d1e70ea19
 
     

Призрак / Yoo-ryeong / Ghost / Сезон: 1 / Серии: 1-20 (20) (Хён-сук Ким / Hyung-suk Kim) [2012 г., боевик, криминал, детектив, HDTVRip, 720p] DVO (GREEN TEA) + Original (Kor)

Ответить на тему
 
Автор
Сообщение

Пост 11-Апр-2014 16:31

[Q] 

TERMOS

Легенда

-Призрак / Yoo-ryeong / Ghost-- Производство: Южная Корея
Жанр: боевик, криминал, детектив
Год выпуска: 2012 г.
Продолжительность: 20 x ~01:03:00
Мировая премьера: 30 мая 2012
Перевод: Любительский (двухголосый, закадровый) [GREEN TEA]
Оригинальный аудиопоток: корейский
Режиссер: Хён-сук Ким / Hyung-suk Kim-В ролях: Со Чжи Соп, Ли Ён Хи, Ом Ки Чжун, Чжи О(G.O - MBLAQ) / Чон Бён Хи, Квак До Вон , Сон Ха Юн, Чхве Даниель , Ли Сом , Чан Хен Сон и др.-Описание: Ким У Хён — единственный сын высокопоставленного полицейского чиновника. Парень поступил в лучшую полицейскую академию и окончил ее с отличием. После окончания учебы он стал детективом и вместе с Ю Ган Ми присоединился к отделу расследования кибер-преступлений. У Хён стремится раскрыть тайны тех, кто скрывается в пределах кибер мира.
- -Серии 1-15
Качество видео: HDTVRip
Контейнер: MKV
Стандарт разрешения: 720p
Видео кодек: H.264/AVC
Аудио кодек: AC3
Видео: 1280х720, 29,970 fps, ~4500 kbps avg
Аудио: Russian: AC3, 48 kHz, 2/0 (L,R), ~192 kbps avg
Аудио #2: Korean: AC3, 48 kHz, 3/2 (L,C,R,l,r) + LFE ch, ~384 kbps avg
Cубтитры: отсутствуют
Серии 16-20
Качество видео: HDTVRip
Контейнер: AVI
Стандарт разрешения: 720p
Видео кодек: H.264/AVC
Аудио кодек: AC3
Видео: 1280х720, 29,970 fps, ~3000 kbps avg
Аудио: Russian: AC3, 48 kHz, 2/0 (L,R), ~192 kbps avg
Cубтитры: отсутствуют
Код:
General
Complete name                    : U:\Uploads\Pirat.Ca\Ghost (2012)[720p.HDTVRip]\Ghost.2012.E01.HDTVRip.720p.mkv
Format                           : Matroska
File size                        : 2.35 GiB
Duration                         : 1h 3mn
Overall bit rate                 : 5 301 Kbps
Movie name                       : Призрак / Yoo-ryeong / Ghost.E01.2012  [email protected]
Encoded date                     : UTC 2013-09-19 23:06:42
Writing application              : mkvmerge v3.4.0 ('Rapunzel') сборка от May 15 2010 09:38:20
Writing library                  : libebml v0.8.0 + libmatroska v0.9.0
Video
ID                               : 1
Format                           : AVC
Format/Info                      : Advanced Video Codec
Format profile                   : [email protected]
Format settings, CABAC           : Yes
Format settings, ReFrames        : 7 frames
Muxing mode                      : Container [email protected]
Codec ID                         : V_MPEG4/ISO/AVC
Duration                         : 1h 3mn
Bit rate                         : 4 428 Kbps
Width                            : 1 280 pixels
Height                           : 720 pixels
Display aspect ratio             : 16:9
Frame rate                       : 29.970 fps
Color space                      : YUV
Chroma subsampling               : 4:2:0
Bit depth                        : 8 bits
Scan type                        : Progressive
Bits/(Pixel*Frame)               : 0.160
Stream size                      : 1.96 GiB (84%)
Audio #1
ID                               : 2
Format                           : AC-3
Format/Info                      : Audio Coding 3
Mode extension                   : CM (complete main)
Codec ID                         : A_AC3
Duration                         : 1h 3mn
Bit rate mode                    : Constant
Bit rate                         : 384 Kbps
Channel(s)                       : 2 channels
Channel positions                : Front: L R
Sampling rate                    : 48.0 KHz
Bit depth                        : 16 bits
Video delay                      : 4ms
Stream size                      : 174 MiB (7%)
Title                            : AC3 2.0 DVO-Green Tea
Language                         : Russian
Audio #2
ID                               : 3
Format                           : AC-3
Format/Info                      : Audio Coding 3
Mode extension                   : CM (complete main)
Codec ID                         : A_AC3
Duration                         : 1h 3mn
Bit rate mode                    : Constant
Bit rate                         : 384 Kbps
Channel(s)                       : 2 channels
Channel positions                : Front: L R
Sampling rate                    : 48.0 KHz
Bit depth                        : 16 bits
Video delay                      : 4ms
Stream size                      : 174 MiB (7%)
Title                            : AC3 2.0 Original
Language                         : Korean
- -
Download / Скачать

Хотите скачать бесплатно? Зарегистрируйтесь на сайте (ссылка на регистрацию). Pirat.ca - самый быстрый торрент трекер в рунете!

Как скачивать  ·   Что такое торрент  ·   Рейтинг и ограничения



Последний раз редактировалось: TERMOS (2015-11-13 13:27), всего редактировалось 3 раз(а)

Пост 11-Апр-2014 18:16 (спустя 1 час 44 минуты)

Топик был перенесен из форума Зарубежные сериалы (Трюм) в форум Сериалы в эфире
kugesan
 

TERMOS ®

Легенда

12039

Пост 19-Апр-2014 15:46 (спустя 7 дней)

[Q] 

Добавлены 6-10 серии. Обновите торрент-файл!

_________________
[Профиль]  [ЛС] 

DrSuicide

Штурман

28

Пост 19-Апр-2014 16:57 (спустя 1 час 10 минут)

[Q] 

Будут серии все выложены?
[Профиль]  [ЛС] 

TERMOS ®

Легенда

12039

Пост 19-Апр-2014 17:41 (спустя 44 минуты)

[Q] 

DrSuicide, конечно. Но задержка возможна. Не от меня это зависит.

_________________
[Профиль]  [ЛС] 

DrSuicide

Штурман

28

Пост 19-Апр-2014 20:56 (спустя 3 часа)

[Q] 

Тогда я с вами! =)
[Профиль]  [ЛС] 

TERMOS ®

Легенда

12039

Пост 20-Апр-2014 04:20 (спустя 7 часов)

[Q] 

DrSuicide, это радует)))

_________________
[Профиль]  [ЛС] 

TERMOS ®

Легенда

12039

Пост 26-Апр-2014 16:56 (спустя 6 дней)

[Q] 

Добавлены 11-15 серии. Обновите торрент-файл!

_________________
[Профиль]  [ЛС] 

Quicksilver

Лоцман

Пост 02-Май-2014 17:40 (спустя 6 дней)

[Q] 

Спасибо!!!
отлично, большущее спасибо
[Профиль]  [ЛС] 

DrSuicide

Штурман

28

Пост 04-Май-2014 20:45 (спустя 2 дня 3 часа)

[Q] 

Классный сериал! С нетерпением жду новых серий!
Автору респект!!!
[Профиль]  [ЛС] 

TERMOS ®

Легенда

12039

Пост 04-Май-2014 21:58 (спустя 1 час 13 минут)

[Q] 

DrSuicide, сейчас идёт сбор средств на озвучку последней серии. Думаю скоро досмотрим.))

_________________
[Профиль]  [ЛС] 

DrSuicide

Штурман

28

Пост 14-Май-2014 21:50 (спустя 9 дней)

[Q] 

530887DrSuicide, сейчас идёт сбор средств на озвучку последней серии. Думаю скоро досмотрим.))
я не хочу "досмотреть" я хочу смотреть еще сезонов 10 =)
[Профиль]  [ЛС] 

TERMOS ®

Легенда

12039

Пост 07-Янв-2015 20:01 (спустя 7 месяцев 23 дня)

[Q] 

Так. Я долго ждал - ну пропал релизер. Теперь возможно только добавить серии 16-20 с такими характеристиками:
Код:
General
Complete name                    : S:\Ghost 2012 (720p)\Ghost_E16_HD.avi
Format                           : AVI
Format/Info                      : Audio Video Interleave
File size                        : 1.43 GiB
Duration                         : 1h 4mn
Overall bit rate                 : 3 188 Kbps
Movie name                       : Призрак / Ghost (2012) 720p
Writing application              : VirtualDubMod 1.5.10.2 (build 2542/release)
Writing library                  : VirtualDubMod build 2542/release
Video
ID                               : 0
Format                           : AVC
Format/Info                      : Advanced Video Codec
Format profile                   : [email protected]
Format settings, CABAC           : Yes
Format settings, ReFrames        : 4 frames
Codec ID                         : h264
Duration                         : 1h 4mn
Bit rate                         : 3 000 Kbps
Width                            : 1 280 pixels
Height                           : 720 pixels
Display aspect ratio             : 16:9
Frame rate                       : 29.970 fps
Color space                      : YUV
Chroma subsampling               : 4:2:0
Bit depth                        : 8 bits
Scan type                        : Progressive
Bits/(Pixel*Frame)               : 0.109
Stream size                      : 1.34 GiB (94%)
Writing library                  : x264 core 130 r2273 b3065e6
Encoding settings                : cabac=1 / ref=3 / deblock=1:-1:-1 / analyse=0x3:0x113 / me=umh / subme=9 / psy=1 / psy_rd=1.00:1.00 / mixed_ref=1 / me_range=16 / chroma_me=1 / trellis=1 / 8x8dct=1 / cqm=0 / deadzone=21,11 / fast_pskip=1 / chroma_qp_offset=-8 / threads=4 / lookahead_threads=1 / sliced_threads=0 / nr=0 / decimate=1 / interlaced=0 / bluray_compat=0 / constrained_intra=0 / bframes=3 / b_pyramid=2 / b_adapt=1 / b_bias=0 / direct=3 / weightb=1 / open_gop=0 / weightp=2 / keyint=299 / keyint_min=25 / scenecut=40 / intra_refresh=0 / rc_lookahead=40 / rc=2pass / mbtree=1 / bitrate=3000 / ratetol=1.0 / qcomp=0.60 / qpmin=10 / qpmax=51 / qpstep=4 / cplxblur=20.0 / qblur=0.5 / ip_ratio=1.40 / aq=1:1.00
Audio
ID                               : 1
Format                           : MPEG Audio
Format version                   : Version 1
Format profile                   : Layer 3
Mode                             : Joint stereo
Codec ID                         : 55
Codec ID/Hint                    : MP3
Duration                         : 1h 4mn
Bit rate mode                    : Constant
Bit rate                         : 192 Kbps
Channel(s)                       : 2 channels
Sampling rate                    : 48.0 KHz
Stream size                      : 88.1 MiB (6%)
Alignment                        : Aligned on interleaves
Interleave, duration             : 33 ms (1.00 video frame)
Interleave, preload duration     : 504 ms
Всё на усмотрение модераторов. Сабы и корейскую дорогу могу добавить.

_________________
[Профиль]  [ЛС] 

Андря

8409

Пост 08-Янв-2015 01:46 (спустя 5 часов)

[Q] 

TERMOS, модераторы согласны

_________________
Като Тешекика
[Профиль]  [ЛС] 

TERMOS ®

Легенда

12039

Пост 13-Ноя-2015 13:29 (спустя 10 месяцев 5 дней)

[Q] 

Добавлены 16-20 серии. Финал! Обновите торрент-файл!

_________________
[Профиль]  [ЛС] 

Пост 13-Ноя-2015 13:49 (спустя 20 минут)

Топик был перенесен из форума Сериалы в эфире в форум Зарубежные сериалы
Андря
 
Показать сообщения:    
Ответить на тему

Текущее время: Сегодня 07:59

Часовой пояс: GMT + 4



Вы не можете начинать темы
Вы не можете отвечать на сообщения
Вы не можете редактировать свои сообщения
Вы не можете удалять свои сообщения
Вы не можете голосовать в опросах
Вы не можете прикреплять файлы к сообщениям
Вы не можете скачивать файлы

▼ Вниз