ML
     
  Уважаемый Гость!
Вы можете поддержать проект и зарегистрироваться у наших партнеров - онлайн-стратегия MyLands. При регистрации в игре Вы получите код, который сможете активировать после регистрации на pirat.ca и получить 1000 дублонов.

Ваш код:
73640f24f8a0f579e128ea7346fd2db2b1009143
 
     

Настоящая Кровь / True Blood / Сезон: 3 / Серии: 1-12 (Майкл Леманн / Michael Lehmann, ...) [2010 г., фэнтези, триллер, драма, мелодрама, детектив, HDTVRip] DVO + Sub (Eng) + Original (Eng)

Ответить на тему
 
Автор
Сообщение

Пост 13-Апр-2014 13:15

[Q] 

DrSuicide

Штурман

-Настоящая Кровь / True Blood-- Производство: США, Home Box Office (HBO), Your Face Goes Here Entertainment
Жанр: фэнтези, триллер, драма, мелодрама, детектив
Год выпуска: 2010 г.
Продолжительность: 12 х 00:53:00
Перевод: Профессиональный (двухголосый, закадровый)
Оригинальный аудиопоток: английский
Режиссер: Майкл Леманн / Michael Lehmann, Скотт Уинант / Scott Winant, Даниэль Минахан / Daniel Minahanс-В ролях: Анна Пакуин, Стивен Мойер, Сэм Трэммелл, Райан Квонтен, Рутина Уэсли, Кэрри Престон.-Описание: События разворачиваются в небольшом городке в пригороде Нового Орлеана. С тех пор, как японцы изобрели синтетическую кровь «True Blood», у вампиров отпала необходимость убивать простых смертных. Два года назад вампиры покинули свои гробы и официально заявили о своих правах. Но как водится, не все люди оказались готовы к этому, и не все вампиры были рады отказаться от привычного лакомства. Соки Стэкхауз — обычная официантка из пригородного кафе, наделенная способностью читать мысли окружающих, знакомится с «хорошим» вампиром Биллом Комтоном. И сразу приобретает много врагов из «плохих парней». Сериал содержит сцены насилия и сексуального характера, не рекомендуется к просмотру лицам до 18 лет.-
Качество видео: HDTVRip
Контейнер: AVI
Видео кодек: XviD
Аудио кодек: MP3
Видео: 624x352, 1294 kbps avg, 23.976 fps, 0.245 Бит/Пик
Аудио Rus: 128.00 kbps avg, 2, 48 kHz Русский перевод, профессиональный (двухголосый, закадровый)
Аудио Eng: 128.00 kbps avg, 2, 48 kHz Оригинальная звуковая дорожка
Cубтитры: английские + Русские
Формат субтитров: softsub (SRT)
Общее
Полное имя : D:\Video\Сериалы\Настоящая кровь- True Blood\S03E01-12\True.Blood.S03E01.HDTV.avi
Формат : AVI
Формат/Информация : Audio Video Interleave
Размер файла : 601 Мбайт
Продолжительность : 53 м.
Режим общего битрейта : Переменный
Общий поток : 1569 Кбит/сек
Программа кодирования : VirtualDubMod 1.5.10.3 | www.virtualdub-fr.org || (build 2550/release)
Библиотека кодирования : VirtualDubMod build 2550/release
Видео
Идентификатор : 0
Формат : MPEG-4 Visual
Профиль формата : Advanced [email protected]
Параметр BVOP формата : 2
Параметр QPel формата : Нет
Параметр GMC формата : Без точки перехода
Параметр матрицы формата : Default (H.263)
Идентификатор кодека : XVID
Идентификатор кодека/Подсказка : XviD
Продолжительность : 53 м.
Битрейт : 1291 Кбит/сек
Ширина : 624 пикселя
Высота : 352 пикселя
Соотношение сторон : 16:9
Частота кадров : 23,976 кадра/сек
Цветовое пространство : YUV
Субдискретизация насыщенности : 4:2:0
Битовая глубина : 8 бит
Тип развёртки : Прогрессивная
Метод сжатия : С потерями
Бит/(Пиксели*Кадры) : 0.245
Размер потока : 494 Мбайт (82%)
Библиотека кодирования : XviD 1.2.1 (UTC 2008-12-04)
Аудио #1
Идентификатор : 1
Формат : MPEG Audio
Версия формата : Version 1
Профиль формата : Layer 3
Идентификатор кодека : 55
Идентификатор кодека/Подсказка : MP3
Продолжительность : 53 м.
Вид битрейта : Постоянный
Битрейт : 128 Кбит/сек
Каналы : 2 канала
Частота : 48,0 КГц
Метод сжатия : С потерями
Размер потока : 49,0 Мбайт (8%)
Выравнивание : Соединение по промежуткам
Продолжительность промежутка : 42 мс. (1,00 видеокадр)
Время предзагрузки промежутка : 504 мс.
Аудио #2
Идентификатор : 2
Формат : MPEG Audio
Версия формата : Version 1
Профиль формата : Layer 3
Режим : Joint stereo
Расширение режима : MS Stereo
Идентификатор кодека : 55
Идентификатор кодека/Подсказка : MP3
Продолжительность : 53 м.
Вид битрейта : Переменный
Битрейт : 128 Кбит/сек
Каналы : 2 канала
Частота : 48,0 КГц
Метод сжатия : С потерями
Размер потока : 51,0 Мбайт (8%)
Выравнивание : Соединение по промежуткам
Продолжительность промежутка : 24 мс. (0,58 видеокадр)
Время предзагрузки промежутка : 471 мс.
Библиотека кодирования : LAME3.96r
Настройки программы : -m j -V 4 -q 3 -lowpass 17.5 --abr 128
Download / Скачать

Хотите скачать бесплатно? Зарегистрируйтесь на сайте (ссылка на регистрацию). Pirat.ca - самый быстрый торрент трекер в рунете!

Как скачивать  ·   Что такое торрент  ·   Рейтинг и ограничения



Последний раз редактировалось: DrSuicide (2014-04-15 20:54), всего редактировалось 1 раз

DrSuicide ®

Штурман

28

Пост 17-Апр-2014 22:41 (спустя 4 дня)

[Q] 

Спасибо kugesan, с раздачами разобрались. Теперь все работает.
[Профиль]  [ЛС] 

Пост 18-Апр-2014 06:50 (спустя 8 часов)

Топик был перенесен из форума Зарубежные сериалы (Трюм) в форум Зарубежные сериалы
erchine
 

Stranger484

Лоцман

2

Пост 07-Янв-2015 15:45 (спустя 8 месяцев 19 дней)

[Q] 

ни одного нет на раздаче Кто здеся?
[Профиль]  [ЛС] 
Показать сообщения:    
Ответить на тему

Текущее время: Сегодня 22:30

Часовой пояс: GMT + 4



Вы не можете начинать темы
Вы не можете отвечать на сообщения
Вы не можете редактировать свои сообщения
Вы не можете удалять свои сообщения
Вы не можете голосовать в опросах
Вы не можете прикреплять файлы к сообщениям
Вы не можете скачивать файлы

▼ Вниз