ML
     
  Уважаемый Гость!
Вы можете поддержать проект и зарегистрироваться у наших партнеров - онлайн-стратегия MyLands. При регистрации в игре Вы получите код, который сможете активировать после регистрации на pirat.ca и получить 1000 дублонов.

Ваш код:
fcd618d94adc1456bccbde5047c9cd0930e4ae4d
 
     

Элементарно / Elementary / Сезон: 1 / Серии: 1-24 (24) (Джон Полсон / John Polson ...) [2012 г., драма, криминал, детектив, WEB-DL, 720p] Dub (Первый Канал) + MVO (LostFilmTV, NewStudio) + Original (Eng) + Sub (Eng)

Ответить на тему
 
Автор
Сообщение

Пост 14-Апр-2014 23:22

[Q] 

TERMOS

Легенда

-Элементарно / Elementary
«New Holmes. New Watson. New York»
(1 сезон)
-- Производство: США
Жанр: драма, криминал, детектив
Год выпуска: 2012 г.
Продолжительность: 24 х ~00:43:00
Мировая премьера: 27 сентября 2012
Российская премьера: 14 октября 2012
Перевод: Профессиональный (полное дублирование) [Первый Канал]
Перевод 2: Профессиональный (многоголосый, закадровый) [LostFilmTV]
Перевод 3: Профессиональный (многоголосый, закадровый) [NewStudio]
Оригинальный аудиопоток: английский
Режиссер: Джон Полсон / John Polson, Эндрю Бернштейн / Andrew Bernstein, Сет Манн / Seith Mann ...-В ролях: Джонни Ли Миллер, Люси Лью, Эйдан Куинн, Даллас Робертс, Мэнни Перез ...-Описание: Элементарно — современная драма о раскрывающем преступления дуэте Шерлока Холмса и доктора Ватсона, который помогает полиции Нью-Йорка в самых сложных делах. После лечения от алкоголизма и наркомании Шерлок сбегает из Лондона на Манхэттан, а его богатый отец заставляет его взять «компаньонку по трезвости» — Джоан Ватсон. Для Джоан это возможность искупить прошлые грехи — она была успешным хирургом до того, как по ее вине погиб пациент, и она потеряла лицензию. Но Шерлок не такой, как ее предыдущие клиенты. Он сразу же сообщает ей, что ее опыт к нему неприменим, и поддерживать трезвость он будет при помощи работы консультантом в полиции Нью-Йорка. У Ватсон не остается выбора кроме как следовать за ним повсюду. Шерлок находит ее медицинские знания полезными, а она внезапно находит в себе таланты следователя. Капитан Тоби Грегсон из полиции знаком с Холмсом по его работе в Скотланд-Ярде, и с радостью привлекает его к расследованиям в Нью-Йорке. Применив дедуктивный метод, легко догадаться, что эксцентричный Шерлок Холмс не долго протянет в Нью-Йорке, раскрывая преступления. Его порывы должен сдерживать верный друг. Кто бы это мог быть? Элементарно! Ватсон!
- - -Качество видео: WEB-DL
Контейнер: MKV
Стандарт разрешения: 720p
Видео кодек: H.264/AVC
Аудио кодек: AC3
Видео: 1280x720 at 23.976 fps, ~4000 kbps avg
Аудио: Russian: 48 kHz, AC3, 2/0 (L,R) ~192.00 kbps avg |Дубляж, Первый Канал|
Аудио #2: Russian: 48 kHz, AC3, 3/2 (L,C,R,l,r) + LFE ch, ~384.00 kbps avg |Многоголосый закадровый, LostFilmTV|
Аудио #3: Russian: 48 kHz, AC3, 3/2 (L,C,R,l,r) + LFE ch, ~384.00 kbps avg |Многоголосый закадровый, NewStudio|
Аудио #4: English: 48 kHz, AC3, 3/2 (L,C,R,l,r) + LFE ch, ~384.00 kbps avg
Cубтитры: английские
01: Pilot / Пилотная серия
02: While You Were Sleeping / Пока ты спала
03: Child Predator / Пожиратель детей
04: The Rat Race / Крысиные бега
05: Lesser Evils / Меньшее зло
06: Flight Risk / Опасный полет
07: One Way to Get Off / Выйти сухим из воды
08: The Long Fuse / Длинный запал\
09: You Do It to Yourself / Доконать себя
10: The Leviathan / Левиафан
11: Dirty Laundry / Копаясь в грязном белье
12: M. / M.
13: The Red Team / Команда красных
14: The Deductionist / Гений дедукции
15: A Giant Gun, Filled with Drugs / Огромная пушка, заряженная наркотиком
16: Details / Детали
17: Possibility Two / Второй вариант
18: Déjà Vu All Over Again / Дежа вю снова и снова
19: Snow Angels / Снежные ангелы
20: Dead Man's Switch / Страховка мертвеца
21: A Landmark Story / Важная веха в истории
22: Risk Management / Управление риском
23: The Woman / Та самая женщина
24: Heroine / Кое-что о героине
Код:
General
Complete name                    : U:\Uploads\Pirat.Ca\Elementary - Season 01 (2012)[720p.WEB-DL]\Elementary.S01E21.720p.WEB-DL.Rus.Eng.HDCLUB.mkv
Format                           : Matroska
File size                        : 1.62 GiB
Duration                         : 43mn 17s
Overall bit rate                 : 5 344 Kbps
Encoded date                     : UTC 2014-04-14 17:27:14
Writing application              : mkvmerge v6.0.0 ('Coming Up For Air') built on Jan 20 2013 09:52:00
Writing library                  : libebml v1.3.0 + libmatroska v1.4.0
Video
ID                               : 1
Format                           : AVC
Format/Info                      : Advanced Video Codec
Format profile                   : [email protected]
Format settings, CABAC           : No
Format settings, ReFrames        : 2 frames
Format settings, GOP             : M=2, N=32
Muxing mode                      : Container [email protected]
Codec ID                         : V_MPEG4/ISO/AVC
Duration                         : 43mn 17s
Bit rate mode                    : Variable
Bit rate                         : 3 893 Kbps
Width                            : 1 280 pixels
Height                           : 720 pixels
Display aspect ratio             : 16:9
Frame rate                       : 23.976 fps
Color space                      : YUV
Chroma subsampling               : 4:2:0
Bit depth                        : 8 bits
Scan type                        : Progressive
Bits/(Pixel*Frame)               : 0.176
Stream size                      : 1.18 GiB (73%)
Language                         : English
Color primaries                  : BT.709-5, BT.1361, IEC 61966-2-4, SMPTE RP177
Transfer characteristics         : BT.709-5, BT.1361
Matrix coefficients              : BT.709-5, BT.1361, IEC 61966-2-4 709, SMPTE RP177
Audio #1
ID                               : 2
Format                           : AC-3
Format/Info                      : Audio Coding 3
Mode extension                   : CM (complete main)
Codec ID                         : A_AC3
Duration                         : 43mn 17s
Bit rate mode                    : Constant
Bit rate                         : 192 Kbps
Channel(s)                       : 2 channels
Channel positions                : Front: L R
Sampling rate                    : 48.0 KHz
Bit depth                        : 16 bits
Stream size                      : 59.4 MiB (4%)
Title                            : Первый Канал
Language                         : Russian
Audio #2
ID                               : 3
Format                           : AC-3
Format/Info                      : Audio Coding 3
Mode extension                   : CM (complete main)
Codec ID                         : A_AC3
Duration                         : 43mn 17s
Bit rate mode                    : Constant
Bit rate                         : 384 Kbps
Channel(s)                       : 6 channels
Channel positions                : Front: L C R, Side: L R, LFE
Sampling rate                    : 48.0 KHz
Bit depth                        : 16 bits
Stream size                      : 119 MiB (7%)
Title                            : Lostfilm
Language                         : Russian
Audio #3
ID                               : 4
Format                           : AC-3
Format/Info                      : Audio Coding 3
Mode extension                   : CM (complete main)
Codec ID                         : A_AC3
Duration                         : 43mn 17s
Bit rate mode                    : Constant
Bit rate                         : 384 Kbps
Channel(s)                       : 6 channels
Channel positions                : Front: L C R, Side: L R, LFE
Sampling rate                    : 48.0 KHz
Bit depth                        : 16 bits
Stream size                      : 119 MiB (7%)
Title                            : NewStudio
Language                         : Russian
Audio #4
ID                               : 5
Format                           : AC-3
Format/Info                      : Audio Coding 3
Mode extension                   : CM (complete main)
Codec ID                         : A_AC3
Duration                         : 43mn 17s
Bit rate mode                    : Constant
Bit rate                         : 384 Kbps
Channel(s)                       : 6 channels
Channel positions                : Front: L C R, Side: L R, LFE
Sampling rate                    : 48.0 KHz
Bit depth                        : 16 bits
Stream size                      : 119 MiB (7%)
Language                         : English
Text
ID                               : 6
Format                           : UTF-8
Codec ID                         : S_TEXT/UTF8
Codec ID/Info                    : UTF-8 Plain Text
Language                         : English
Download / Скачать

Хотите скачать бесплатно? Зарегистрируйтесь на сайте (ссылка на регистрацию). Pirat.ca - самый быстрый торрент трекер в рунете!

Как скачивать  ·   Что такое торрент  ·   Рейтинг и ограничения



Последний раз редактировалось: TERMOS (2014-04-14 23:26), всего редактировалось 1 раз

TERMOS ®

Легенда

12061

Пост 14-Апр-2014 23:25 (спустя 2 минуты)

[Q] 

В оригинальной раздаче отсутствовал дубляж на последние четыре серии. Пришлось добавить самому.

_________________
[Профиль]  [ЛС] 

LaEtoile

Штурман

Пост 21-Апр-2014 13:08 (спустя 6 дней)

[Q] 

Спасибо!!! отлично)
[Профиль]  [ЛС] 

янка-сан

Гроза морей

Пост 18-Дек-2015 20:16 (спустя 1 год 7 месяцев)

[Q] 

спасибо Лови бочку
[Профиль]  [ЛС] 
Показать сообщения:    
Ответить на тему

Текущее время: Сегодня 12:52

Часовой пояс: GMT + 4



Вы не можете начинать темы
Вы не можете отвечать на сообщения
Вы не можете редактировать свои сообщения
Вы не можете удалять свои сообщения
Вы не можете голосовать в опросах
Вы не можете прикреплять файлы к сообщениям
Вы не можете скачивать файлы

▼ Вниз