ML
     
  Уважаемый Гость!
Вы можете поддержать проект и зарегистрироваться у наших партнеров - онлайн-стратегия MyLands. При регистрации в игре Вы получите код, который сможете активировать после регистрации на pirat.ca и получить 1000 дублонов.

Ваш код:
db0e0ad91548759ffeb9bb88bed405e1a4b3c165
 
     

Элементарно / Elementary / Сезон: 2 / Серии: 1-24 (24) (Джон Полсон / John Polson, ...) [2013 г., драма, криминал, детектив, WEB-DL, 720p] MVO (LostFilmTV, NewStudio) + Original (Eng) + Sub (Eng)

Ответить на тему
 
Автор
Сообщение

Пост 15-Апр-2014 14:22

[Q] 

TERMOS

Легенда

-Элементарно / Elementary
«New Holmes. New Watson. New York»
(2 сезон)
-- Производство: США
Жанр: драма, криминал, детектив
Год выпуска: 2013 г.
Продолжительность: 24 х ~00:43:00
Мировая премьера: 27 сентября 2012
Российская премьера: 14 октября 2012
Перевод: Профессиональный (многоголосый, закадровый) [LostFilm]
Перевод 2: Профессиональный (многоголосый, закадровый) [NewStudio]
Оригинальный аудиопоток: английский
Режиссер: Джон Полсон / John Polson, Эндрю Бернштейн / Andrew Bernstein, Сет Манн / Seith Mann ...-В ролях: Джонни Ли Миллер, Люси Лью, Эйдан Куинн, Даллас Робертс, Мэнни Перез, Джонатан Уолкер, Кристен Буш, Крэйг Уолкер, Майкл Натансон, Randal Turner ...-Описание: Элементарно — современная драма о раскрывающем преступления дуэте Шерлока Холмса и доктора Ватсона, который помогает полиции Нью-Йорка в самых сложных делах. После лечения от алкоголизма и наркомании Шерлок сбегает из Лондона на Манхэттан, а его богатый отец заставляет его взять «компаньонку по трезвости» — Джоан Ватсон. Для Джоан это возможность искупить прошлые грехи — она была успешным хирургом до того, как по ее вине погиб пациент, и она потеряла лицензию. Но Шерлок не такой, как ее предыдущие клиенты. Он сразу же сообщает ей, что ее опыт к нему неприменим, и поддерживать трезвость он будет при помощи работы консультантом в полиции Нью-Йорка. У Ватсон не остается выбора кроме как следовать за ним повсюду. Шерлок находит ее медицинские знания полезными, а она внезапно находит в себе таланты следователя. Капитан Тоби Грегсон из полиции знаком с Холмсом по его работе в Скотланд-Ярде, и с радостью привлекает его к расследованиям в Нью-Йорке. Применив дедуктивный метод, легко догадаться, что эксцентричный Шерлок Холмс не долго протянет в Нью-Йорке, раскрывая преступления. Его порывы должен сдерживать верный друг. Кто бы это мог быть? Элементарно! Ватсон!
- -Качество видео: WEB-DL
Контейнер: MKV
Стандарт разрешения: 720p
Видео кодек: H.264/AVC
Аудио кодек: AC3
Видео: 1280x720 at 23.976 fps, ~4000 kbps avg
Аудио: Russian: 48 kHz, AC3, 3/2 (L,C,R,l,r) + LFE ch, ~384.00 kbps avg |Многоголосый закадровый LostFilm|
Аудио #2: Russian: 48 kHz, AC3, 3/2 (L,C,R,l,r) + LFE ch, ~384.00 kbps avg |Многоголосый закадровый NewStudio|
Аудио #3: English: 48 kHz, AC3, 3/2 (L,C,R,l,r) + LFE ch, ~384.00 kbps avg
Cубтитры: английские
01. Шаг № 9 (Step Nine)
02. Икс равно... (Solve for X)
03. Всё человечество (We Are Everyone)
04. Отравленная ручка (Poison Pen)
05. Дела давно минувших дней (Ancient History)
06. Неестественный союз (An Unnatural Arrangement)
07. Маркиза (The Marchioness)
08. Густая кровь (Blood Is Thicker)
09. Под угрозой (On the Line)
10. Колебания (Tremors)
11. Внутреннее расследование (Internal Audit)
12. Исчадие ада (The Diabolical Kind)
13. Семейные тайны (All in the Family)
14. Обреченный таксон (Dead Clade Walking)
15. Балетный труп (Corpse De Ballet)
16. Идеальное решение (The One Percent Solution)
17. Уши в подарок (Ears to You)
18. Ищейка раковых клеток (The Hound of the Cancer Cells)
19. Челюсти Аарона Колвилла (The Many Mouths of Aaron Colville)
20. В пустоте (No Lack of Void)
21. Человек с рассеченной губой (The Man with the Twisted Lip)
22. Да наступит тьма (Paint in Black)
23. Искусство в крови (Art in the Blood)
24. Великий эксперимент (The Grand Experiment)
Код:
General
Complete name                    : U:\Uploads\Pirat.Ca\Elementary - Season 02 (2013)[720p.WEB-DL]\Elementary.s02e10.720p.HDclub.mkv
Format                           : Matroska
File size                        : 1.58 GiB
Duration                         : 42mn 45s
Overall bit rate                 : 5 297 Kbps
Movie name                       : Elementary s02e10 by k-marat-s
Encoded date                     : UTC 2013-12-10 12:59:46
Writing application              : mkvmerge v6.4.1 ('Omega Point') built on Sep 16 2013 22:05:10
Writing library                  : libebml v1.3.0 + libmatroska v1.4.1
Video
ID                               : 1
Format                           : AVC
Format/Info                      : Advanced Video Codec
Format profile                   : [email protected]
Format settings, CABAC           : No
Format settings, ReFrames        : 2 frames
Format settings, GOP             : M=2, N=25
Muxing mode                      : Container [email protected]
Codec ID                         : V_MPEG4/ISO/AVC
Duration                         : 42mn 45s
Bit rate mode                    : Variable
Bit rate                         : 4 040 Kbps
Width                            : 1 280 pixels
Height                           : 720 pixels
Display aspect ratio             : 16:9
Frame rate                       : 23.976 fps
Color space                      : YUV
Chroma subsampling               : 4:2:0
Bit depth                        : 8 bits
Scan type                        : Progressive
Bits/(Pixel*Frame)               : 0.183
Stream size                      : 1.21 GiB (76%)
Title                            : Elementary s02e10 by k-marat-s
Language                         : English
Color primaries                  : BT.709-5, BT.1361, IEC 61966-2-4, SMPTE RP177
Transfer characteristics         : BT.709-5, BT.1361
Matrix coefficients              : BT.709-5, BT.1361, IEC 61966-2-4 709, SMPTE RP177
Audio #1
ID                               : 2
Format                           : AC-3
Format/Info                      : Audio Coding 3
Mode extension                   : CM (complete main)
Codec ID                         : A_AC3
Duration                         : 42mn 45s
Bit rate mode                    : Constant
Bit rate                         : 384 Kbps
Channel(s)                       : 6 channels
Channel positions                : Front: L C R, Side: L R, LFE
Sampling rate                    : 48.0 KHz
Bit depth                        : 16 bits
Stream size                      : 117 MiB (7%)
Title                            : LostFilm
Language                         : Russian
Audio #2
ID                               : 3
Format                           : AC-3
Format/Info                      : Audio Coding 3
Mode extension                   : CM (complete main)
Codec ID                         : A_AC3
Duration                         : 42mn 45s
Bit rate mode                    : Constant
Bit rate                         : 384 Kbps
Channel(s)                       : 6 channels
Channel positions                : Front: L C R, Side: L R, LFE
Sampling rate                    : 48.0 KHz
Bit depth                        : 16 bits
Stream size                      : 117 MiB (7%)
Title                            : NewStudio
Language                         : Russian
Audio #3
ID                               : 4
Format                           : AC-3
Format/Info                      : Audio Coding 3
Mode extension                   : CM (complete main)
Codec ID                         : A_AC3
Duration                         : 42mn 45s
Bit rate mode                    : Constant
Bit rate                         : 384 Kbps
Channel(s)                       : 6 channels
Channel positions                : Front: L C R, Side: L R, LFE
Sampling rate                    : 48.0 KHz
Bit depth                        : 16 bits
Stream size                      : 117 MiB (7%)
Title                            : English
Language                         : English
Text
ID                               : 5
Format                           : UTF-8
Codec ID                         : S_TEXT/UTF8
Codec ID/Info                    : UTF-8 Plain Text
Title                            : eng-sub
Language                         : English
Внимание! Раздача ведётся путём добавления новых серий; при каждом добавлении создётся новый торрент. Чтобы начать докачку новой серии, пользователям необходимо сделать следующее:
(1) остановить скачивание,
(2) удалить старый торрент у себя из клиента (старые серии удалять не надо),
(3) скачать новый торрент и запустить его у себя в клиенте вместо старого, при этом указать клиенту путь в старую папку куда и должно происходить скачивание новых серий.
Ваш клиент при этом должен произвести хеширование (проверку) старой папки (если не производит сам - помогите ему сделать это), и будет докачивать только те серии которых у вас ещё нет. Старые серии при этом не удаляются, а продолжают раздаваться!
Eсли вы уже удалили старые серии, то предотвратить повторную закачку старых серий можно, отжав галочку в соответсвующих местах при запуске нового торрента.
Download / Скачать

Хотите скачать бесплатно? Зарегистрируйтесь на сайте (ссылка на регистрацию). Pirat.ca - самый быстрый торрент трекер в рунете!

Как скачивать  ·   Что такое торрент  ·   Рейтинг и ограничения



Последний раз редактировалось: TERMOS (2014-05-19 20:41), всего редактировалось 4 раз(а)

Пост 15-Апр-2014 18:57 (спустя 4 часа)

Топик был перенесен из форума Зарубежные сериалы (Трюм) в форум Сериалы в эфире
erchine
 

TERMOS ®

Легенда

12068

Пост 28-Апр-2014 17:26 (спустя 13 дней)

[Q] 

Добавлена 21-я серия. Обновите торрент-файл!

_________________
[Профиль]  [ЛС] 

TERMOS ®

Легенда

12068

Пост 06-Май-2014 17:59 (спустя 8 дней)

[Q] 

Добавлена 22-я серия. Обновите торрент-файл!

_________________
[Профиль]  [ЛС] 

DocSoft

Гроза морей

71

Пост 07-Май-2014 12:59 (спустя 18 часов)

[Q] 

Прикольный сериальчик !

_________________
Всего одна Любовь !
[Профиль]  [ЛС] 

TERMOS ®

Легенда

12068

Пост 12-Май-2014 01:39 (спустя 4 дня)

[Q] 

Добавлена 23-я серия. Обновите торрент-файл!

_________________
[Профиль]  [ЛС] 

TERMOS ®

Легенда

12068

Пост 19-Май-2014 20:43 (спустя 7 дней)

[Q] 

Добавлена 24-я серия. Финал сезона! az Обновите торрент-файл!

_________________
[Профиль]  [ЛС] 

Пост 19-Май-2014 22:00 (спустя 1 час 17 минут)

Топик был перенесен из форума Сериалы в эфире в форум Зарубежные сериалы
kugesan
 
Показать сообщения:    
Ответить на тему

Текущее время: Сегодня 08:08

Часовой пояс: GMT + 4



Вы не можете начинать темы
Вы не можете отвечать на сообщения
Вы не можете редактировать свои сообщения
Вы не можете удалять свои сообщения
Вы не можете голосовать в опросах
Вы не можете прикреплять файлы к сообщениям
Вы не можете скачивать файлы

▼ Вниз