ML
     
  Уважаемый Гость!
Вы можете поддержать проект и зарегистрироваться у наших партнеров - онлайн-стратегия MyLands. При регистрации в игре Вы получите код, который сможете активировать после регистрации на pirat.ca и получить 1000 дублонов.

Ваш код:
4fbd9898b6f10799a3e8edf60f31febd2bc15453
 
     

Фарго / Fargo (Сезон 1 / Полный / Серий: 10 из 10) (Мэтт Шекман / Matt Shakman, ...) [2014 г., драма, криминал, ... WEB-DLRip] MVO (NewStudio) + Original (Eng)

Ответить на тему
 
Автор
Сообщение

Пост 18-Апр-2014 20:12

[Q] 

kugesan

Фарго / Fargo
«Aw jeez, here we go again»
- Русское название: Фарго
Оригинальное название: Fargo
Страна: США
Год выпуска: 2014
Жанр: драма, криминал, ...-Релиз: Студия NewStudio
Перевод: Профессиональный (многоголосый, закадровый)
Оригинальный аудиопоток: английский-Автор перевода: Александра Цернант-Премьера (мир): 15 апреля 2014, ...-Режиссер: Мэтт Шекман / Matt Shakman, Скотт Уинант / Scott Winant, Адам Бернштейн / Adam Bernstein ...
В главных ролях: Мартин Фриман, Билли Боб Торнтон, Боб Оденкёрк, Джули Энн Эмери, Колин Хэнкс, Джои Кинг, Оливер Платт, Кейт Уолш, Джошуа Клоуз, Спенсер Древер, ...-Описание фильма:
Бродяга по имени Лорн приезжает в небольшой городок в штате Миннесота. Он поражает местное население своей злобой и жестокостью, а также подчиняет себе страхового агента Лестера…-Сезон: 1
Серии: 10 из 10 серий
Продолжительность: ~ 01:10:00 мин серия-Качество видео: WEB-DLRip
Формат: AVI
Видеокодек: XviD
Аудиокодек: Mp3
Видео: MPEG-4 Visual at 1326 Кбит/сек: 720 x 400 (1.800) at 23.976 fps, 0.19 Бит/Пиксели
Аудио Rus: MPEG Audio at 128 Кбит/сек: 2 канала, 48,0 КГц |NewStudio|
Аудио Eng: MPEG Audio at 128 Кбит/сек: 2 канала, 48,0 КГц |Original|
- -
  • Крокодиловая дилемма (The Crocodile's Dilemma)
  • Петушиный Принц (The Rooster Prince)
  • Грязное дельце (A Muddy Road)
  • Поедая вину (Eating the Blame)
  • Шесть непостижимостей (The Six Ungraspables)
  • Буриданов осёл (Buridan's Ass)
  • Кто бреет брадобрея (Who Shaves the Barber?)
  • Завал (The Heap)
  • Лиса, кролик, и капуста (A Fox, a Rabbit, and a Cabbage)
  • Вилка Мортона (Morton's Fork)
-
Код:
Общее
Полное имя                               : E:\_Сериалы\_Сериалы\Фарго\Fargo-S1(NewStudio)\fargo.s01e01.WEBDLRip.NewStudio.TV.avi
Формат                                   : AVI
Формат/Информация                        : Audio Video Interleave
Размер файла                             : 800 Мбайт
Продолжительность                        : 1 ч. 10 м.
Общий поток                              : 1596 Кбит/сек
Программа кодирования                    : VirtualDubMod 1.5.10.2 (build 2540/release)
Библиотека кодирования                   : VirtualDubMod build 2540/release
Видео
Идентификатор                            : 0
Формат                                   : MPEG-4 Visual
Профиль формата                          : Advanced [email protected]
Параметр BVOP формата                    : 2
Параметр QPel формата                    : Нет
Параметр GMC формата                     : Без точки перехода
Параметр матрицы формата                 : Default (MPEG)
Идентификатор кодека                     : XVID
Идентификатор кодека/Подсказка           : XviD
Продолжительность                        : 1 ч. 10 м.
Битрейт                                  : 1326 Кбит/сек
Ширина                                   : 720 пикселей
Высота                                   : 400 пикселей
Соотношение сторон                       : 16:9
Частота кадров                           : 23,976 кадра/сек
Цветовое пространство                    : YUV
Субдискретизация насыщенности            : 4:2:0
Битовая глубина                          : 8 бит
Тип развёртки                            : Прогрессивная
Метод сжатия                             : С потерями
Бит/(Пиксели*Кадры)                      : 0.192
Размер потока                            : 665 Мбайт (83%)
Библиотека кодирования                   : XviD 64
Аудио #1
Идентификатор                            : 1
Формат                                   : MPEG Audio
Версия формата                           : Version 1
Профиль формата                          : Layer 3
Режим                                    : Joint stereo
Расширение режима                        : MS Stereo
Идентификатор кодека                     : 55
Идентификатор кодека/Подсказка           : MP3
Продолжительность                        : 1 ч. 10 м.
Вид битрейта                             : Постоянный
Битрейт                                  : 128 Кбит/сек
Каналы                                   : 2 канала
Частота                                  : 48,0 КГц
Метод сжатия                             : С потерями
Размер потока                            : 64,2 Мбайт (8%)
Выравнивание                             : Соединение по промежуткам
Продолжительность промежутка             : 42  мс. (1,00 видеокадр)
Время предзагрузки промежутка            : 504  мс.
Аудио #2
Идентификатор                            : 2
Формат                                   : MPEG Audio
Версия формата                           : Version 1
Профиль формата                          : Layer 3
Режим                                    : Joint stereo
Идентификатор кодека                     : 55
Идентификатор кодека/Подсказка           : MP3
Продолжительность                        : 1 ч. 10 м.
Вид битрейта                             : Постоянный
Битрейт                                  : 128 Кбит/сек
Каналы                                   : 2 канала
Частота                                  : 48,0 КГц
Метод сжатия                             : С потерями
Размер потока                            : 64,2 Мбайт (8%)
Выравнивание                             : Соединение по промежуткам
Продолжительность промежутка             : 42  мс. (1,00 видеокадр)
Время предзагрузки промежутка            : 504  мс.
Библиотека кодирования                   : LAME3.99r
Настройки программы                      : -m j -V 4 -q 2 -lowpass 17 -b 128
-
-Скриншоты:
-
-
Внимание! Раздача ведётся путём добавления новых серий; при каждом добавлении создётся новый торрент. Чтобы начать докачку новой серии, пользователям необходимо сделать следующее:
(1) остановить скачивание,
(2) удалить старый торрент у себя из клиента (старые серии удалять не надо),
(3) скачать новый торрент и запустить его у себя в клиенте вместо старого, при этом указать клиенту путь в старую папку куда и должно происходить скачивание новых серий.
Ваш клиент при этом должен произвести хеширование (проверку) старой папки (если не производит сам - помогите ему сделать это), и будет докачивать только те серии которых у вас ещё нет. Старые серии при этом не удаляются, а продолжают раздаваться!
Eсли вы уже удалили старые серии, то предотвратить повторную закачку старых серий можно, отжав галочку в соответсвующих местах при запуске нового торрента.
-Добавлена десятая, заключительная, серия первого сезона
Download / Скачать

Хотите скачать бесплатно? Зарегистрируйтесь на сайте (ссылка на регистрацию). Pirat.ca - самый быстрый торрент трекер в рунете!

Как скачивать  ·   Что такое торрент  ·   Рейтинг и ограничения



Последний раз редактировалось: kugesan (2014-06-19 12:52), всего редактировалось 9 раз(а)

Пост 19-Апр-2014 00:46 (спустя 4 часа)

Топик был перенесен из форума Зарубежные сериалы (Трюм) в форум Сериалы в эфире
erchine
 

Нэйтон

Флибустьер

Пост 08-Май-2014 13:36 (спустя 19 дней)

[Q] 

Сериал классный ....... только в озвучке КвК на много интереснее...... Автору респект!!!
[Профиль]  [ЛС] 

Griiz

Лоцман

Пост 13-Июн-2014 18:28 (спустя 1 месяц 5 дней)

[Q] 

Дядь ты хоть бы проверил что выкладываешь качество 9серии ужас постоянно куски пропадают...... Трафик потрачен зря!
[Профиль]  [ЛС] 

Нэйтон

Флибустьер

Пост 13-Июн-2014 20:14 (спустя 1 час 46 минут)

[Q] 

что еще за чушь???? только скачал и посмотрел , все отлично...... dc
Может тебе просто нужно обновить кодеки....
Автору респект!!!
[Профиль]  [ЛС] 

kugesan ®

56656

Пост 14-Июн-2014 09:42 (спустя 13 часов)

[Q] 

Griiz, Заметь ты единственный у кого что то пропадает... может проблема не в 9 ой серии?!!!

_________________

В мире две бесконечности: вселенная и человеческая глупость - Альберт Эйнштен
«Можно вытащить человека из грязи, но нельзя вытащить грязь из человека»!
[Профиль]  [ЛС] 

kugesan ®

56656

Пост 19-Июн-2014 12:52 (спустя 5 дней)

[Q] 

Добавлена десятая, заключительная, серия первого сезона

_________________

В мире две бесконечности: вселенная и человеческая глупость - Альберт Эйнштен
«Можно вытащить человека из грязи, но нельзя вытащить грязь из человека»!
[Профиль]  [ЛС] 

ягжин

Гроза морей

Пост 21-Июн-2014 17:16 (спустя 2 дня 4 часа)

[Q] 

Спасибо! Супер! Автору респект!!!
[Профиль]  [ЛС] 

sevensv

Легенда

2585

Пост 23-Июн-2014 22:57 (спустя 2 дня 5 часов)

[Q] 

Спасибо!!! Лови бочку
[Профиль]  [ЛС] 

kugesan ®

56656

Пост 23-Июн-2014 22:58 (спустя 1 минута)

[Q] 

Приятного просмотра!!!

_________________

В мире две бесконечности: вселенная и человеческая глупость - Альберт Эйнштен
«Можно вытащить человека из грязи, но нельзя вытащить грязь из человека»!
[Профиль]  [ЛС] 

Victorsalata

Корсар

Пост 03-Июл-2014 16:52 (спустя 9 дней)

[Q] 

Нормальный сериал. Можно смотреть.
[Профиль]  [ЛС] 
Показать сообщения:    
Ответить на тему

Текущее время: Сегодня 19:55

Часовой пояс: GMT + 4



Вы не можете начинать темы
Вы не можете отвечать на сообщения
Вы не можете редактировать свои сообщения
Вы не можете удалять свои сообщения
Вы не можете голосовать в опросах
Вы не можете прикреплять файлы к сообщениям
Вы не можете скачивать файлы

▼ Вниз