ML
     
  Уважаемый Гость!
Вы можете поддержать проект и зарегистрироваться у наших партнеров - онлайн-стратегия MyLands. При регистрации в игре Вы получите код, который сможете активировать после регистрации на pirat.ca и получить 1000 дублонов.

Ваш код:
8dcb839cf1b47e56d6dc42d17f26b3e4822e9aee
 
     

Серангун Роуд / Serangoon Road / Сезон: 1 / Полный / Серии: 10 из 10 (Питер Андрикидис / Peter Andrikidis, ...) [2013 г., драма, криминал, детектив, ..., HDRip] DVO (AlexFilm & Agatha Studdio) + Original (Eng)

Ответить на тему
 
Автор
Сообщение

Пост 19-Апр-2014 13:36

[Q] 

kugesan

-Серангун Роуд / Serangoon Road-- Производство: Сингапур, Австралия
Жанр: драма, криминал, детектив, ...
Год выпуска: 2013 г.-Премьера (Мир):: 22 сентября 2013, ...-Озвучка: &
Перевод: Многоголосый закадровый, профессиональный
Оригинальный аудиопоток: английский-Перевод: Антон Кедров
Озвучка: Татьяна Манетина, Анастасия Флигина, Владимир Курдов, Александр Дасевич, Михаил Шорыгин
Монтаж и сведение звука: Михаил Шорыгин-Режиссер: Питер Андрикидис / Peter Andrikidis, Тони Тилс / Tony Tilse-В ролях: Дон Хани, Джоан Чэнь, Майкл Дорман, Мейв Дермоди, Рэйчел Блейк, Арио Баю, Тони Мартин, Николас Белл, Джереми Линдсэй Тейлор, П.Дж. Лэйн, Памелин Чи, Чин Хань, Аларик Тэй, Клив Уильямс, Шэйн Брайант, Эдмунд Чэнь, Расселл Вон ...-Описание:
События сериала разворачиваются в экзотическом, бурно развивающемся Сингапуре 1960-ых годов. Родившийся в Австралии Сэм Каллаган, чьё детство во время Второй Мировой Войны прошло в японском концлагере Чанги, а юность во время Войны в Малайе за независимость от Великобритании, глубоко травмирован событиями его жизни. И когда соседка Патрисия просит его помочь сохранить на плаву детективное агентство её покойного мужа, Сэма затягивает в водоворот непредсказуемого опасного мира, в котором китайские банды борются за контроль на улицах, разведчики иностранных держав усиливают политическую нестабильность, и не утихают расовые конфликты.
Каждая отдельная серия сериала имеет основу в реальном историческом событии.-Сезон: 1
Серии: 10 из 10 серий
Продолжительность: ~ 00:51:00 мин серия-Качество видео: HDRip
Контейнер: AVI
Видео кодек: XviD
Аудио кодек: MP3
Видео: MPEG-4 Visual at 1507 Кбит/сек: 720 x 400 (1.800) at 25.000 fps: 0.21 Бит/Пиксели
Аудио Rus: MPEG Audio at 128 Кбит/сек, 2 канала, 48,0 КГц |AlexFilm| & |Agatha Studdio|
Аудио Eng: MPEG Audio at 128 Кбит/сек: 2 канала, 48,0 КГц |Original|
Cубтитры: отсутствуют
- -
  • Дробовик (Shotgun)
  • Достучаться (Reach Out)
  • Мяч Замешательства (Ball of Confusion)
  • Дай Мне Денег (Give Me Money)
  • Жара (Heatwave)
  • Tracks of My Tears (Tracks of My Tears)
  • Моя Девушка (My Girl)

  • Эпизод()
  • Эпизод()
  • Эпизод()
Код:
Общее
Полное имя                               : E:\_Сериалы\_Сериалы\Серангун Роуд\Serangoon Road - Season 1 (AlexFilm & Agatha Studdio) HDRip\Serangoon.Road.s01e01.HDRip.Rus.Eng.AlexFilm.&.Agatha.Studdio.avi
Формат                                   : AVI
Формат/Информация                        : Audio Video Interleave
Размер файла                             : 661 Мбайт
Продолжительность                        : 51 м.
Общий поток                              : 1778 Кбит/сек
Программа кодирования                    : VirtualDubMod 1.5.10.2 (build 2542/release)
Библиотека кодирования                   : VirtualDubMod build 2542/release
Видео
Идентификатор                            : 0
Формат                                   : MPEG-4 Visual
Профиль формата                          : Advanced [email protected]
Параметр BVOP формата                    : 1
Параметр QPel формата                    : Нет
Параметр GMC формата                     : Без точки перехода
Параметр матрицы формата                 : Default (MPEG)
Идентификатор кодека                     : XVID
Идентификатор кодека/Подсказка           : XviD
Продолжительность                        : 51 м.
Битрейт                                  : 1507 Кбит/сек
Ширина                                   : 720 пикселей
Высота                                   : 400 пикселей
Соотношение сторон                       : 16:9
Частота кадров                           : 25,000 кадров/сек
Цветовое пространство                    : YUV
Субдискретизация насыщенности            : 4:2:0
Битовая глубина                          : 8 бит
Тип развёртки                            : Прогрессивная
Метод сжатия                             : С потерями
Бит/(Пиксели*Кадры)                      : 0.209
Размер потока                            : 560 Мбайт (85%)
Библиотека кодирования                   : XviD 1.2.1 (UTC 2008-12-04)
Аудио #1
Идентификатор                            : 1
Формат                                   : MPEG Audio
Версия формата                           : Version 1
Профиль формата                          : Layer 3
Режим                                    : Joint stereo
Расширение режима                        : MS Stereo
Идентификатор кодека                     : 55
Идентификатор кодека/Подсказка           : MP3
Продолжительность                        : 51 м.
Вид битрейта                             : Постоянный
Битрейт                                  : 128 Кбит/сек
Каналы                                   : 2 канала
Частота                                  : 48,0 КГц
Метод сжатия                             : С потерями
Размер потока                            : 47,6 Мбайт (7%)
Выравнивание                             : Соединение по промежуткам
Продолжительность промежутка             : 40  мс. (1,00 видеокадр)
Время предзагрузки промежутка            : 504  мс.
Заголовок                                : Russian (AlexFilm)
Библиотека кодирования                   : LAME3.99r
Настройки программы                      : -m j -V 4 -q 3 -lowpass 18 -b 128
Аудио #2
Идентификатор                            : 2
Формат                                   : MPEG Audio
Версия формата                           : Version 1
Профиль формата                          : Layer 3
Режим                                    : Joint stereo
Расширение режима                        : MS Stereo
Идентификатор кодека                     : 55
Идентификатор кодека/Подсказка           : MP3
Продолжительность                        : 51 м.
Вид битрейта                             : Постоянный
Битрейт                                  : 128 Кбит/сек
Каналы                                   : 2 канала
Частота                                  : 48,0 КГц
Метод сжатия                             : С потерями
Размер потока                            : 47,6 Мбайт (7%)
Выравнивание                             : Соединение по промежуткам
Продолжительность промежутка             : 40  мс. (1,00 видеокадр)
Время предзагрузки промежутка            : 504  мс.
Заголовок                                : English
Скриншоты:
-
-Добавлена десятая, заключительная, серия первого сезона
Download / Скачать

Хотите скачать бесплатно? Зарегистрируйтесь на сайте (ссылка на регистрацию). Pirat.ca - самый быстрый торрент трекер в рунете!

Как скачивать  ·   Что такое торрент  ·   Рейтинг и ограничения



Последний раз редактировалось: kugesan (2014-10-16 13:02), всего редактировалось 14 раз(а)

kugesan ®

56718

Пост 16-Окт-2014 13:03 (спустя 5 месяцев 26 дней)

[Q] 

Добавлена десятая, заключительная, серия первого сезона

_________________

В мире две бесконечности: вселенная и человеческая глупость - Альберт Эйнштен
«Можно вытащить человека из грязи, но нельзя вытащить грязь из человека»!
[Профиль]  [ЛС] 

maki

Морской Волк

Пост 16-Окт-2014 13:29 (спустя 26 минут)

[Q] 

Супер!мне очень нравится!
[Профиль]  [ЛС] 

SHERHAN

683

Пост 16-Окт-2014 15:05 (спустя 1 час 35 минут)

[Q] 

Спасибо!!! Автору респект!!!

_________________
Рыжий хищник, полосатый,
В меру наглый и усатый,
Днём и ночью он не спит,
Зорко в монитор глядит!
[Профиль]  [ЛС] 

Пост 28-Янв-2015 00:23 (спустя 3 месяца 11 дней)

Топик был перенесен из форума Сериалы в эфире в форум Зарубежные сериалы
Андря
 
Показать сообщения:    
Ответить на тему

Текущее время: Сегодня 04:15

Часовой пояс: GMT + 4



Вы не можете начинать темы
Вы не можете отвечать на сообщения
Вы не можете редактировать свои сообщения
Вы не можете удалять свои сообщения
Вы не можете голосовать в опросах
Вы не можете прикреплять файлы к сообщениям
Вы не можете скачивать файлы

▼ Вниз