ML
     
  Уважаемый Гость!
Вы можете поддержать проект и зарегистрироваться у наших партнеров - онлайн-стратегия MyLands. При регистрации в игре Вы получите код, который сможете активировать после регистрации на pirat.ca и получить 1000 дублонов.

Ваш код:
73640f24f8a0f579e128ea7346fd2db2b1009143
 
     

Салем / Salem / Сезон: 1 / полный / Серии: 1-13 из 13 (Ричард Шепард / Richard Shepard) [2014 г., фантастика, триллер, драма, WEB-DL] MVO (BaibaKo) + Original (Eng)

Ответить на тему
 
Автор
Сообщение

Пост 22-Апр-2014 09:35

[Q] 

LPPI

-Салем / Salem-«Ведьмы среди нас»- Производство: США, Tribune Studios, Twentieth Century Fox Television
Жанр: фантастика, триллер, драма
Год выпуска: 2014 г.
Продолжительность: ~00:52:00
Мировая премьера: 20 апреля 2014-Перевод: Профессиональный (многоголосый, закадровый) [BaibaKo]
Оригинальный аудиопоток: английский-Режиссер: Ричард Шепард / Richard Shepard
В ролях: Шэйн Уэст, Джанет Монтгомери, Эжур Дэун, Моргана Шоу, Сет Гейбл, Ксандер Беркли, Эшли Мадекве, Элиз Эберли, Джон Артур, Кристофер Берри, Дайан Салинджер-Описание: Сюжет сериала закручен вокруг отважного ветерана войны, который возвращается с полей сражений в родной Салем. Добравшись до родных мест, мужчина обнаруживает, что все местное население охвачено безумием охоты на «ведьм».- -Качество видео: WEB-DL
Контейнер: AVI
Видео кодек: XviD
Аудио кодек: MP3
Видео: 720x400 (1.80:1), 23.976 fps, XviD build 50 ~1663 kbps avg, 0.24 bit/pixel
Аудио: Русский: 48 kHz, MPEG Layer 3, 2 ch, ~192.00 kbps avg [MVO]
Аудио #2: Английский: 48 kHz, MPEG Layer 3, 2 ch, ~192.00 kbps avg [Original]
Cубтитры: отсутствуют
01. Клятва / The Vow
02. Несчастное дитя / The Stone Child
03. Напрасно / In Vain
04. Выжившие / Survivors
05. Вранье / Lies
06. Красная роза и шиповник / The Red Rose and the Briar
07. Наша личная Америка / Our Own Private America
08. Отъезд / Departures
09. Бойтесь, дети / Children, Be Afraid
10. Дом боли / The House of Pain
11. Кошки-мышки / Cat and Mouse
12. Прах к праху / Ashes Ashes
13. Все падут / All Fall Down
General
Complete name : D:\Салем (Сезон 1) WEB-DLRip - BaibaKo\Salem.s01e01.avi
Format : AVI
Format/Info : Audio Video Interleave
File size : 771 MiB
Duration : 52mn 18s
Overall bit rate : 2 062 Kbps
Writing application : VirtualDubMod 1.5.10.2 (build 2540/release)
Writing library : VirtualDubMod build 2540/release
Video
ID : 0
Format : MPEG-4 Visual
Format profile : Advanced [email protected]
Format settings, BVOP : 2
Format settings, QPel : No
Format settings, GMC : No warppoints
Format settings, Matrix : Default (H.263)
Codec ID : XVID
Codec ID/Hint : XviD
Duration : 52mn 18s
Bit rate : 1 664 Kbps
Width : 720 pixels
Height : 400 pixels
Display aspect ratio : 16:9
Frame rate : 23.976 fps
Color space : YUV
Chroma subsampling : 4:2:0
Bit depth : 8 bits
Scan type : Progressive
Compression mode : Lossy
Bits/(Pixel*Frame) : 0.241
Stream size : 623 MiB (81%)
Writing library : XviD 1.2.1 (UTC 2008-12-04)
Audio #1
ID : 1
Format : MPEG Audio
Format version : Version 1
Format profile : Layer 3
Mode : Joint stereo
Mode extension : MS Stereo
Codec ID : 55
Codec ID/Hint : MP3
Duration : 52mn 18s
Bit rate mode : Constant
Bit rate : 192 Kbps
Channel(s) : 2 channels
Sampling rate : 48.0 KHz
Compression mode : Lossy
Stream size : 71.8 MiB (9%)
Alignment : Aligned on interleaves
Interleave, duration : 42 ms (1.00 video frame)
Interleave, preload duration : 504 ms
Writing library : LAMEЄЄ
Audio #2
ID : 2
Format : MPEG Audio
Format version : Version 1
Format profile : Layer 3
Mode : Joint stereo
Mode extension : MS Stereo
Codec ID : 55
Codec ID/Hint : MP3
Duration : 52mn 18s
Bit rate mode : Constant
Bit rate : 192 Kbps
Channel(s) : 2 channels
Sampling rate : 48.0 KHz
Compression mode : Lossy
Stream size : 71.8 MiB (9%)
Alignment : Aligned on interleaves
Interleave, duration : 42 ms (1.00 video frame)
Interleave, preload duration : 504 ms
Добавлена, последняя, 13 серия первого сезонаСериал продлен на второй сезон (весна 2015)
Download / Скачать

Хотите скачать бесплатно? Зарегистрируйтесь на сайте (ссылка на регистрацию). Pirat.ca - самый быстрый торрент трекер в рунете!

Как скачивать  ·   Что такое торрент  ·   Рейтинг и ограничения



Последний раз редактировалось: LPPI (2014-07-15 09:01), всего редактировалось 12 раз(а)

MaXoR

Флибустьер

1473

Пост 22-Апр-2014 20:22 (спустя 10 часов)

[Q] 

Интересна данная тематика, подумаю насчет скачивания.

_________________
Живы будем - не помрем!
[Профиль]  [ЛС] 

LPPI ®

137535

Пост 29-Апр-2014 12:45 (спустя 6 дней)

[Q] 

Добавлена 2 серия.
[Профиль]  [ЛС] 

Ahzool

Корсар

Пост 30-Апр-2014 01:03 (спустя 12 часов)

[Q] 

мерсиба-комрад!)попутного ветра и сухого пороха))))буду раздавать твоё)
Лови бочку Вы лучшие!

_________________
Si non es occupatus quid natum moriendo occupatus es,beauty creatur vultus.
[Профиль]  [ЛС] 

kmv01

Гроза морей

Пост 30-Апр-2014 13:04 (спустя 12 часов)

[Q] 

Прикольный сериал, стоит посмотреть!
[Профиль]  [ЛС] 

LPPI ®

137535

Пост 06-Май-2014 11:27 (спустя 5 дней)

[Q] 

Добавлена 3 серия.
[Профиль]  [ЛС] 

LPPI ®

137535

Пост 13-Май-2014 19:44 (спустя 7 дней)

[Q] 

Добавлена 4 серия.
[Профиль]  [ЛС] 

Billy Bones

Шкипер

Пост 14-Май-2014 22:20 (спустя 1 день 2 часа)

[Q] 

скачаю-посижу на раздаче,а то скорость удручает....думаю сериал понравится-люблю такие сказочки
[Профиль]  [ЛС] 

LPPI ®

137535

Пост 20-Май-2014 14:45 (спустя 5 дней)

[Q] 

Добавлена 5 серия.
[Профиль]  [ЛС] 

LPPI ®

137535

Пост 27-Май-2014 16:08 (спустя 7 дней)

[Q] 

Добавлена 6 серия.
[Профиль]  [ЛС] 

ak_132

Флибустьер

Пост 27-Май-2014 17:54 (спустя 1 час 46 минут)

[Q] 

Анонс завлекательный
[Профиль]  [ЛС] 

MaXoR

Флибустьер

1473

Пост 27-Май-2014 19:27 (спустя 1 час 32 минуты)

[Q] 

539949Добавлена 6 серия.
Спасибо. Придется качать у Вас. На раздаче ньюстудио все стоит колом.

_________________
Живы будем - не помрем!
[Профиль]  [ЛС] 

LPPI ®

137535

Пост 27-Май-2014 19:31 (спустя 4 минуты)

[Q] 

540022
539949Добавлена 6 серия.
Спасибо. Придется качать у Вас. На раздаче ньюстудио все стоит колом.
Тут нормальная озвучка, я смотрю её)
[Профиль]  [ЛС] 

LPPI ®

137535

Пост 04-Июн-2014 15:45 (спустя 7 дней)

[Q] 

Добавлена 7 серия.
[Профиль]  [ЛС] 

LPPI ®

137535

Пост 10-Июн-2014 16:00 (спустя 6 дней)

[Q] 

Добавлена 8 серия.
[Профиль]  [ЛС] 

Нэйтон

Флибустьер

Пост 10-Июн-2014 16:21 (спустя 21 минута)

[Q] 

Посмотрел первую серию задумка интересная dc
Автору респект!!!
[Профиль]  [ЛС] 

LPPI ®

137535

Пост 17-Июн-2014 21:37 (спустя 7 дней)

[Q] 

Добавлена 9 серия.
[Профиль]  [ЛС] 

petrovich2005

Корсар

Пост 18-Июн-2014 16:52 (спустя 19 часов)

[Q] 

должно быть интересно
[Профиль]  [ЛС] 

LPPI ®

137535

Пост 24-Июн-2014 11:44 (спустя 5 дней)

[Q] 

Добавлена 10 серия.
[Профиль]  [ЛС] 

LPPI ®

137535

Пост 01-Июл-2014 11:17 (спустя 6 дней)

[Q] 

Добавлена 11 серия.
[Профиль]  [ЛС] 

UA4HQW

Флибустьер

2528

Пост 01-Июл-2014 13:08 (спустя 1 час 50 минут)

[Q] 

Спасибо!!! Автору респект!!!
[Профиль]  [ЛС] 

LPPI ®

137535

Пост 08-Июл-2014 19:21 (спустя 7 дней)

[Q] 

Добавлена 12 серия.
[Профиль]  [ЛС] 

sereganame69

Пост 09-Июл-2014 00:01 (спустя 4 часа)

[Q] 

Win Free Bitcoins every hour!
!kugesan писал(а):

Ссылки на сторонние ресурсы категорически запрещены!!!
[Профиль]  [ЛС] 

LPPI ®

137535

Пост 15-Июл-2014 09:01 (спустя 6 дней)

[Q] 

Добавлена, последняя, 13 серия первого сезонаСериал продлен на второй сезон (весна 2015)
[Профиль]  [ЛС] 

kudrjavy

Флибустьер

Пост 15-Июл-2014 13:35 (спустя 4 часа)

[Q] 

Спасибо,думаю интересно будет!)) Лови бочку
Добавлено спустя 2 часа 40 минут 29 секунд:
Дайте скорости!!!! Скорость как у черепахи

_________________
Девушки-как печеньки: ломаются,пока не намокнут...
[Профиль]  [ЛС] 
Показать сообщения:    
Ответить на тему

Текущее время: Сегодня 22:37

Часовой пояс: GMT + 4



Вы не можете начинать темы
Вы не можете отвечать на сообщения
Вы не можете редактировать свои сообщения
Вы не можете удалять свои сообщения
Вы не можете голосовать в опросах
Вы не можете прикреплять файлы к сообщениям
Вы не можете скачивать файлы

▼ Вниз