ML
     
  Уважаемый Гость!
Вы можете поддержать проект и зарегистрироваться у наших партнеров - онлайн-стратегия MyLands. При регистрации в игре Вы получите код, который сможете активировать после регистрации на pirat.ca и получить 1000 дублонов.

Ваш код:
8b752b428cf60a012c159dcae592cd1392170115
 
     

Банши / Banshee / Сезон: 2 / Серии: 1-10 из 10 (Мигель Сапочник / Miguel Sapochnik, Грег Яйтанс / Greg Yaitanes) [2014 г., боевик, триллер, драма, криминал, детектив, HDTVRip] MVO (Amedia)

Ответить на тему
 
Автор
Сообщение

Пост 22-Апр-2014 16:03

[Q] 

LPPI

-Банши / Banshee-«Small Town. Big Secrets»- Производство: США, Cinemax, Your Face Goes Here Entertainment
Жанр: боевик, триллер, драма, криминал, детектив
Год выпуска: 2014 г.
Продолжительность: 10x~00:50:00-Перевод: Профессиональный (многоголосый, закадровый) [Amedia]-Режиссер: Мигель Сапочник / Miguel Sapochnik, Грег Яйтанс / Greg Yaitanes
В ролях: Триесте Келли Данн, Мэтт Сервитто, Энтони Старр, Рас Блэквелл, Ивана Миличевич, Райанн Шэйн, Фрэнки Фэйзон, Деметриус Гросс, Мэттью Ройч, Хун Ли, Ульрих Томсен, Кристофер Козорт, Дерек Сесил, Стив Култер, Джозеф Майсснер-Описание: Вор и убийца выходит на свободу после 15 лет заключения и выдаёт себя за убитого шерифа в глухом американском городке со странным названием Банши.- -Качество видео: HDTVRip
Контейнер: AVI
Видео кодек: XviD
Аудио кодек: AC3
Видео: 720x400 (1.80:1), 25 fps, XviD MPEG-4 ~1999 kbps avg, 0.28 bit/pixel
Аудио: 48 kHz, AC3 Dolby Digital, 3/2 (L,C,R,l,r) + LFE ch, ~384 kbps
Cубтитры: отсутствуют
General
Complete name : D:\Банши (Сезон 2) HDTVRip [Amedia]\Banshee.s02e01.avi
Format : AVI
Format/Info : Audio Video Interleave
File size : 817 MiB
Duration : 47mn 43s
Overall bit rate : 2 394 Kbps
Writing application : VirtualDubMod 1.5.10.2 (build 2540/release)
Writing library : VirtualDubMod build 2540/release
Video
ID : 0
Format : MPEG-4 Visual
Format profile : Advanced [email protected]
Format settings, BVOP : 1
Format settings, QPel : No
Format settings, GMC : No warppoints
Format settings, Matrix : Default (MPEG)
Codec ID : XVID
Codec ID/Hint : XviD
Duration : 47mn 43s
Bit rate : 2 000 Kbps
Width : 720 pixels
Height : 400 pixels
Display aspect ratio : 16:9
Frame rate : 25.000 fps
Color space : YUV
Chroma subsampling : 4:2:0
Bit depth : 8 bits
Scan type : Progressive
Compression mode : Lossy
Bits/(Pixel*Frame) : 0.278
Stream size : 683 MiB (84%)
Writing library : XviD 65
Audio
ID : 1
Format : AC-3
Format/Info : Audio Coding 3
Mode extension : CM (complete main)
Format settings, Endianness : Big
Codec ID : 2000
Duration : 47mn 42s
Bit rate mode : Constant
Bit rate : 384 Kbps
Channel(s) : 6 channels
Channel positions : Front: L C R, Side: L R, LFE
Sampling rate : 48.0 KHz
Bit depth : 16 bits
Compression mode : Lossy
Stream size : 131 MiB (16%)
Alignment : Split accross interleaves
Interleave, duration : 40 ms (1.00 video frame)
Interleave, preload duration : 500 ms
Download / Скачать

Хотите скачать бесплатно? Зарегистрируйтесь на сайте (ссылка на регистрацию). Pirat.ca - самый быстрый торрент трекер в рунете!

Как скачивать  ·   Что такое торрент  ·   Рейтинг и ограничения

zoloft

Пост 22-Апр-2014 16:30 (спустя 26 минут)

[Q] 

LPPI, Перевод "Пифагор"
[Профиль]  [ЛС] 

Пост 22-Апр-2014 17:39 (спустя 1 час 8 минут)

Топик был перенесен из форума Зарубежные сериалы (Трюм) в форум Зарубежные сериалы
kugesan
 

padaggi

Штурман

Пост 01-Июн-2014 17:09 (спустя 1 месяц 9 дней)

[Q] 

Классный сериал!!! Первый сезон очень понра Всем качать!!! вился,
[Профиль]  [ЛС] 

Salatinc

Лоцман

Пост 10-Июл-2014 08:04 (спустя 1 месяц 8 дней)

[Q] 

Огромное спасибо! Еле нашёл.
[Профиль]  [ЛС] 

alexshly

Штурман

Пост 12-Июл-2014 19:45 (спустя 2 дня 11 часов)

[Q] 

Один из самых лучших сериалов на текущий момент!
[Профиль]  [ЛС] 

Idiom

Лоцман

Пост 28-Июл-2014 22:46 (спустя 16 дней)

[Q] 

Спасибо, боцман, якорррь мне в задницу.
[Профиль]  [ЛС] 

fex

Морской Волк

Пост 10-Мар-2015 01:57 (спустя 7 месяцев 12 дней)

[Q] 

Спасибо!!!! Долго искал)))

_________________
Всегда телефон в микроволновке заряжаю, на две минуты ставлю. Оперативку отлично очищает и удаляет системный мусор.
[Профиль]  [ЛС] 

pdb08

Легенда

Пост 14-Мар-2015 14:00 (спустя 4 дня)

[Q] 

Спасибо! Автору респект!!!

_________________
[Профиль]  [ЛС] 

pdb08

Легенда

Пост 21-Мар-2015 21:54 (спустя 7 дней)

[Q] 

Смотрел! Смотрительно и 3 сезон тоже! ))))) Одобрямс!

_________________
[Профиль]  [ЛС] 

pdb08

Легенда

Пост 28-Мар-2015 14:54 (спустя 6 дней)

[Q] 

Затягивает, но опять девочки дерутся .... , просто не реально! Пиратка рулит!

_________________
[Профиль]  [ЛС] 
Показать сообщения:    
Ответить на тему

Текущее время: Сегодня 06:24

Часовой пояс: GMT + 4



Вы не можете начинать темы
Вы не можете отвечать на сообщения
Вы не можете редактировать свои сообщения
Вы не можете удалять свои сообщения
Вы не можете голосовать в опросах
Вы не можете прикреплять файлы к сообщениям
Вы не можете скачивать файлы

▼ Вниз