ML
     
  Уважаемый Гость!
Вы можете поддержать проект и зарегистрироваться у наших партнеров - онлайн-стратегия MyLands. При регистрации в игре Вы получите код, который сможете активировать после регистрации на pirat.ca и получить 1000 дублонов.

Ваш код:
73640f24f8a0f579e128ea7346fd2db2b1009143
 
     

Салем / Salem / Сезон: 1 / Полный / Серии: 13 из 13 (Ричард Шепард / Richard Shepard) [2014 г., фантастика, триллер, драма, WEB-DLRip] MVO (LostFilm)

Ответить на тему
 
Автор
Сообщение

Пост 24-Апр-2014 09:02

[Q] 

kugesan

-Салем / Salem
«Witch Among Us»
-- Производство: США
Жанр: фантастика, триллер, драма
Год выпуска: 2014 г.-Мировая премьера: 20 апреля 2014-Озвучка: Студия
Перевод: Многоголосый закадровый, профессиональный-Режиссер: Ричард Шепард / Richard Shepard-В ролях: Шэйн Уэст, Джанет Монтгомери, Эжур Дэун, Моргана Шоу, Сет Гейбл, Ксандер Беркли, Эшли Мадекве, Элиз Эберли, Джон Артур, Кристофер Берри, Дайан Салинджер ...-Описание:
Сюжет сериала закручен вокруг отважного ветерана войны, который возвращается с полей сражений в родной Салем. Добравшись до родных мест, мужчина обнаруживает, что все местное население охвачено безумием охоты на «ведьм».-Сезон: 1
Серии: 13 из 13 серий
Продолжительность: ~ 00:52:00 мин серия-Качество видео: WEB-DLRip
Контейнер: AVI
Видео кодек: XviD
Аудио кодек: MP3
Видео: MPEG-4 Visual at 1057 Кбит/сек: 720 x 400 (1.800) at 23.976 fps: 0.15 Бит/Пиксели
Аудио Rus: MPEG Audio at 192 Кбит/сек: 2 канала, 48,0 КГц |LostFilm|
Cубтитры: отсутствуют
- -
  • Клятва (The Vow)
  • Каменное дитя (The Stone Child)
  • Напрасно (In Vain)
  • Выжившие (Survivors)
  • Ложь (Lies)
  • Шиповник и алая роза (The Red Rose and the Briar)
  • Собственная Америка (Our Own Private America)
  • Отправная точка (Departures)
  • Бойтесь, дети! (Children, Be Afraid)
  • Дом боли (The House of Pain)
  • Кошки-мышки (Cat and Mouse)
  • Пепел (Ashes, Ashes)
Код:
Общее
Полное имя                               : E:\_Сериалы\_NeW_\Salem.S01E01.rus.LostFilm.TV.avi
Формат                                   : AVI
Формат/Информация                        : Audio Video Interleave
Размер файла                             : 473 Мбайт
Продолжительность                        : 52 м.
Общий поток                              : 1262 Кбит/сек
Программа кодирования                    : Nandub v1.0rc2
Библиотека кодирования                   : Nandub build 1853/release
Видео
Идентификатор                            : 0
Формат                                   : MPEG-4 Visual
Профиль формата                          : [email protected]
Параметр BVOP формата                    : Нет
Параметр QPel формата                    : Нет
Параметр GMC формата                     : Без точки перехода
Параметр матрицы формата                 : Default (H.263)
Идентификатор кодека                     : XVID
Идентификатор кодека/Подсказка           : XviD
Продолжительность                        : 52 м.
Битрейт                                  : 1057 Кбит/сек
Ширина                                   : 720 пикселей
Высота                                   : 400 пикселей
Соотношение сторон                       : 16:9
Частота кадров                           : 23,976 кадра/сек
Цветовое пространство                    : YUV
Субдискретизация насыщенности            : 4:2:0
Битовая глубина                          : 8 бит
Тип развёртки                            : Прогрессивная
Метод сжатия                             : С потерями
Бит/(Пиксели*Кадры)                      : 0.153
Размер потока                            : 397 Мбайт (84%)
Библиотека кодирования                   : XviD 1.2.1 (UTC 2008-12-04)
Аудио
Идентификатор                            : 1
Формат                                   : MPEG Audio
Версия формата                           : Version 1
Профиль формата                          : Layer 3
Режим                                    : Joint stereo
Расширение режима                        : MS Stereo
Идентификатор кодека                     : 55
Идентификатор кодека/Подсказка           : MP3
Продолжительность                        : 52 м.
Вид битрейта                             : Постоянный
Битрейт                                  : 192 Кбит/сек
Каналы                                   : 2 канала
Частота                                  : 48,0 КГц
Метод сжатия                             : С потерями
Размер потока                            : 72,0 Мбайт (15%)
Выравнивание                             : Соединение по промежуткам
Продолжительность промежутка             : 24  мс. (0,58 видеокадр)
Время предзагрузки промежутка            : 480  мс.
Библиотека кодирования                   : LAME3.97 (beta)
-Добавлена тринадцатая, заключительная, серия первого сезона
Download / Скачать

Хотите скачать бесплатно? Зарегистрируйтесь на сайте (ссылка на регистрацию). Pirat.ca - самый быстрый торрент трекер в рунете!

Как скачивать  ·   Что такое торрент  ·   Рейтинг и ограничения



Последний раз редактировалось: kugesan (2014-07-17 14:24), всего редактировалось 16 раз(а)

makuha

Шкипер

Пост 22-Май-2014 18:09 (спустя 28 дней)

[Q] 

Спасибо. Лови бочку
[Профиль]  [ЛС] 

kugesan ®

56646

Пост 22-Май-2014 20:48 (спустя 2 часа 39 минут)

[Q] 

makuha, aa az

_________________

В мире две бесконечности: вселенная и человеческая глупость - Альберт Эйнштен
«Можно вытащить человека из грязи, но нельзя вытащить грязь из человека»!
[Профиль]  [ЛС] 

Janasim

Шкипер

Пост 04-Июл-2014 19:20 (спустя 1 месяц 12 дней)

[Q] 

мне понравился. Интересненько
[Профиль]  [ЛС] 

digitalprofi

Шкипер

Пост 11-Июл-2014 16:01 (спустя 6 дней)

[Q] 

начал смотреть, пока инересно

_________________
Я чертовски быстр! На прошлых выходных я обогнал чёрную перечную змею.
Серьезно! Моя скорость между змеёй и мангустом.. и пантерой..
[Профиль]  [ЛС] 

kugesan ®

56646

Пост 17-Июл-2014 14:19 (спустя 5 дней)

[Q] 

Добавлена тринадцатая, заключительная, серия первого сезона

_________________

В мире две бесконечности: вселенная и человеческая глупость - Альберт Эйнштен
«Можно вытащить человека из грязи, но нельзя вытащить грязь из человека»!
[Профиль]  [ЛС] 
Показать сообщения:    
Ответить на тему

Текущее время: Сегодня 22:31

Часовой пояс: GMT + 4



Вы не можете начинать темы
Вы не можете отвечать на сообщения
Вы не можете редактировать свои сообщения
Вы не можете удалять свои сообщения
Вы не можете голосовать в опросах
Вы не можете прикреплять файлы к сообщениям
Вы не можете скачивать файлы

▼ Вниз