ML
     
  Уважаемый Гость!
Вы можете поддержать проект и зарегистрироваться у наших партнеров - онлайн-стратегия MyLands. При регистрации в игре Вы получите код, который сможете активировать после регистрации на pirat.ca и получить 1000 дублонов.

Ваш код:
9cfe162481db953a6549f32179d7b3900b8b8643
 
     

Салем / Salem / Сезон: 1 / Полный / Серии: 13 из 13 (Ричард Шепард / Richard Shepard) [2014 г., фантастика, триллер, драма, WEB-DLRip] MVO (AlexFilm) + Original (Eng)

Ответить на тему
 
Автор
Сообщение

Пост 24-Апр-2014 09:16

[Q] 

kugesan

-Салем / Salem
«Witch Among Us»
-- Производство: США
Жанр: фантастика, триллер, драма
Год выпуска: 2014 г.-Мировая премьера: 20 апреля 2014-Озвучка: Студия
Перевод: Многоголосый закадровый, профессиональный
Оригинальный аудиопоток: английский-Перевод: Doctor Joker и MartinaG
Озвучка: Ирина Воронова, Александр Воронов, Михаил Суслов, Сергей Пономарёв, Владимир Курдов
Монтаж и сведение звука: Михаил Шорыгин
Обложка: tvblog-Режиссер: Ричард Шепард / Richard Shepard-В ролях: Шэйн Уэст, Джанет Монтгомери, Эжур Дэун, Моргана Шоу, Сет Гейбл, Ксандер Беркли, Эшли Мадекве, Элиз Эберли, Джон Артур, Кристофер Берри, Дайан Салинджер ...-Описание:
Сюжет сериала закручен вокруг отважного ветерана войны, который возвращается с полей сражений в родной Салем. Добравшись до родных мест, мужчина обнаруживает, что все местное население охвачено безумием охоты на «ведьм».-Сезон: 1
Серии: 13 из 13 серий
Продолжительность: ~ 00:52:00 мин серия-Качество видео: WEB-DLRip
Контейнер: AVI
Видео кодек: XviD
Аудио кодек: MP3
Видео: MPEG-4 Visual at 1331 Кбит/сек: 720 x 400 (1.800) at 23.976 fps: 0.19 Бит/Пиксели
Аудио Rus: MPEG Audio at 128 Кбит/сек, 2 канала, 48,0 КГц |AlexFilm|
Аудио Eng: MPEG Audio at 128 Кбит/сек, 2 канала, 48,0 КГц |Original|
Cубтитры: отсутствуют
- -
  • Клятва (The Vow)
  • Каменное дитя (The Stone Child)
  • Напрасно (In Vain)
  • Выживание (Survivors)
  • Ложь (Lies)
  • Шиповник и алая роза (The Red Rose and the Briar)
  • Собственная Америка (Our Own Private America)
  • Отступления (Departures)
  • Бойтесь дети (Children Be Afraid)
  • Дом боли (The House of Pain)
  • Кошки-мышки (Cat and Mouse)
  • Пепел пепел (Ashes Ashes)
  • Все умрут (All Fall Down)
Код:
Общее
Полное имя                               : E:\_Сериалы\_Сериалы\Салем\Salem - Season 1 (AlexFilm) WEB-DLRip\Salem.s01e01.WEB-DLRip.Rus.Eng.AlexFilm.avi
Формат                                   : AVI
Формат/Информация                        : Audio Video Interleave
Размер файла                             : 600 Мбайт
Продолжительность                        : 52 м.
Общий поток                              : 1601 Кбит/сек
Название фильма                          : Salem 1x01 The Vow @ AlexFilm
Программа кодирования                    : VirtualDubMod 1.5.10.2 (build 2542/release)
Видео
Идентификатор                            : 0
Формат                                   : MPEG-4 Visual
Профиль формата                          : Advanced [email protected]
Параметр BVOP формата                    : 1
Параметр QPel формата                    : Нет
Параметр GMC формата                     : Без точки перехода
Параметр матрицы формата                 : Default (MPEG)
Идентификатор кодека                     : XVID
Идентификатор кодека/Подсказка           : XviD
Продолжительность                        : 52 м.
Битрейт                                  : 1331 Кбит/сек
Ширина                                   : 720 пикселей
Высота                                   : 400 пикселей
Соотношение сторон                       : 16:9
Частота кадров                           : 23,976 кадра/сек
Цветовое пространство                    : YUV
Субдискретизация насыщенности            : 4:2:0
Битовая глубина                          : 8 бит
Тип развёртки                            : Прогрессивная
Метод сжатия                             : С потерями
Бит/(Пиксели*Кадры)                      : 0.193
Размер потока                            : 499 Мбайт (83%)
Библиотека кодирования                   : XviD 1.2.1 (UTC 2008-12-04)
Аудио #1
Идентификатор                            : 1
Формат                                   : MPEG Audio
Версия формата                           : Version 1
Профиль формата                          : Layer 3
Режим                                    : Joint stereo
Расширение режима                        : MS Stereo
Идентификатор кодека                     : 55
Идентификатор кодека/Подсказка           : MP3
Продолжительность                        : 52 м.
Вид битрейта                             : Постоянный
Битрейт                                  : 128 Кбит/сек
Каналы                                   : 2 канала
Частота                                  : 48,0 КГц
Метод сжатия                             : С потерями
Размер потока                            : 48,0 Мбайт (8%)
Выравнивание                             : Соединение по промежуткам
Продолжительность промежутка             : 42  мс. (1,00 видеокадр)
Время предзагрузки промежутка            : 504  мс.
Заголовок                                : Russian (AlexFilm)
Аудио #2
Идентификатор                            : 2
Формат                                   : MPEG Audio
Версия формата                           : Version 1
Профиль формата                          : Layer 3
Режим                                    : Joint stereo
Расширение режима                        : MS Stereo
Идентификатор кодека                     : 55
Идентификатор кодека/Подсказка           : MP3
Продолжительность                        : 52 м.
Вид битрейта                             : Постоянный
Битрейт                                  : 128 Кбит/сек
Каналы                                   : 2 канала
Частота                                  : 48,0 КГц
Метод сжатия                             : С потерями
Размер потока                            : 48,0 Мбайт (8%)
Выравнивание                             : Соединение по промежуткам
Продолжительность промежутка             : 42  мс. (1,00 видеокадр)
Время предзагрузки промежутка            : 504  мс.
Заголовок                                : English
-
-Добавлена тринадцатая, заключительная, серия первого сезона
Download / Скачать

Хотите скачать бесплатно? Зарегистрируйтесь на сайте (ссылка на регистрацию). Pirat.ca - самый быстрый торрент трекер в рунете!

Как скачивать  ·   Что такое торрент  ·   Рейтинг и ограничения



Последний раз редактировалось: kugesan (2014-07-16 22:40), всего редактировалось 18 раз(а)

Ahzool

Корсар

Пост 26-Апр-2014 13:42 (спустя 2 дня 4 часа)

[Q] 

благодарствую! пилотка очень да же!)))будем ждать, надеюсь сценаристы не сдуются)))
kugesan! если есть список с датами выхода серий, не могли бы вы их тут опубликовать, за ранее мерсиба!))
Лови бочку Вы лучшие!
З.Ы.
попутного ветра и сухого пороха. останусь на раздаче.

_________________
Si non es occupatus quid natum moriendo occupatus es,beauty creatur vultus.
[Профиль]  [ЛС] 

kugesan ®

56676

Пост 26-Апр-2014 14:37 (спустя 54 минуты)

[Q] 

Серии, в оригинале, выходят по воскресениям, плюс 2-3 дня на озвучивание...

_________________

В мире две бесконечности: вселенная и человеческая глупость - Альберт Эйнштен
«Можно вытащить человека из грязи, но нельзя вытащить грязь из человека»!
[Профиль]  [ЛС] 

Ahzool

Корсар

Пост 26-Апр-2014 20:58 (спустя 6 часов)

[Q] 

ок, мерсиба за оперативность!)) Автору респект!!!

_________________
Si non es occupatus quid natum moriendo occupatus es,beauty creatur vultus.
[Профиль]  [ЛС] 

Sanji Kock

Морской Волк

3

Пост 08-Май-2014 22:07 (спустя 12 дней)

[Q] 

Забираемс! Лови бочку

_________________
Называйте меня Mr.Fox. Лисы захватят этот прекрасный мир и сделают его одной большой норой....
[Профиль]  [ЛС] 

kugesan ®

56676

Пост 08-Май-2014 23:27 (спустя 1 час 20 минут)

[Q] 

Спасибо за Ром aa az

_________________

В мире две бесконечности: вселенная и человеческая глупость - Альберт Эйнштен
«Можно вытащить человека из грязи, но нельзя вытащить грязь из человека»!
[Профиль]  [ЛС] 

MaXoR

Флибустьер

1474

Пост 13-Май-2014 18:20 (спустя 4 дня)

[Q] 

Хорошо пошел сериальчик!

_________________
Живы будем - не помрем!
[Профиль]  [ЛС] 

jofrei53

Корсар

Пост 20-Июн-2014 20:28 (спустя 1 месяц 7 дней)

[Q] 

Спасибо! Посмотрим, оценим... Автору респект!!! Спасибо!!!
[Профиль]  [ЛС] 

kugesan ®

56676

Пост 16-Июл-2014 22:40 (спустя 26 дней)

[Q] 

Добавлена тринадцатая, заключительная, серия первого сезона

_________________

В мире две бесконечности: вселенная и человеческая глупость - Альберт Эйнштен
«Можно вытащить человека из грязи, но нельзя вытащить грязь из человека»!
[Профиль]  [ЛС] 
Показать сообщения:    
Ответить на тему

Текущее время: Сегодня 06:03

Часовой пояс: GMT + 4



Вы не можете начинать темы
Вы не можете отвечать на сообщения
Вы не можете редактировать свои сообщения
Вы не можете удалять свои сообщения
Вы не можете голосовать в опросах
Вы не можете прикреплять файлы к сообщениям
Вы не можете скачивать файлы

▼ Вниз