ML
     
  Уважаемый Гость!
Вы можете поддержать проект и зарегистрироваться у наших партнеров - онлайн-стратегия MyLands. При регистрации в игре Вы получите код, который сможете активировать после регистрации на pirat.ca и получить 1000 дублонов.

Ваш код:
0ea1bf889af42fca5f67d0a391efb3400850ad7c
 
     

Шерлок / Sherlock / Сезон: 3 / Серии: 1-3 (3) (Пол МакГиган / Paul McGuiga, Коки Гидройч / Coky Giedroyc, Эрос Лин / Euros Lyn ...) [2014 г., триллер, драма, криминал, BDRip, 1080p] Dub (Первый канал) + Original (Eng) + Sub (Rus, Eng)

Ответить на тему
 
Автор
Сообщение

Пост 24-Апр-2014 20:13

[Q] 

TERMOS

Легенда

-Шерлок / Sherlock
«Лучший сыщик 21-го века»
(3 сезон)
-- Производство: Великобритания
Жанр: триллер, драма, криминал
Год выпуска: 2014 г.
Продолжительность: 3 х ~01:30:00
Мировая премьера: 25 июля 2010
Российская премьера: 18 сентября 2010
Перевод: Профессиональный (полное дублирование) [Первый канал]
Оригинальный аудиопоток: английский
Режиссер: Пол МакГиган / Paul McGuiga, Коки Гидройч / Coky Giedroyc, Эрос Лин / Euros Lyn ...-В ролях: Бенедикт Камбербэтч, Мартин Фриман, Уна Стаббс, Руперт Грейвз, Лу Брили, Марк Гатисс, Эндрю Скотт, Винетт Робинсон, Таня Муди, Джонатан Арис-Описание: События разворачиваются в наши дни. Он прошел Афганистан, остался инвалидом. По возвращении в родные края встречается с загадочным, но своеобразным гениальным человеком. Тот в поиске соседа по квартире. Лондон, 2010 год. Происходят необъяснимые убийства. Скотланд-Ярд без понятия, за что хвататься. Существует лишь один человек, который в силах разрешить проблемы и найти ответы на сложные вопросы.
- -Качество видео: BDRip
Контейнер: MKV
Стандарт разрешения: 1080p
Видео кодек: H.264/AVC
Аудио кодек: DTS
Видео: 1920/1916x1080 at 25.000 fps, ~20,0-27,5 Mbps avg
Аудио: Russian: 48 kHz, DTS, 2.0 (L,R) ch, ~768.00 kbps avg |Дубляж, Первый канал|
Аудио #2: English: 48 kHz, DTS, 5.1 (Front: L C R, Side: L R, LFE) ch, ~1510.00 kbps avg
Cубтитры: English, Russian (Первый канал, N-Team, MemoryOnSmells)
01: The Empty Hearse / Пустой катафалк
02: The Sign of Three / Знак трех
03: His Last Vow / Его последний обе
т
Код:
General
Complete name                    : Y:\Uploads\Pirat.Ca\Sherlock - Season 03 (2014)[1080p.BDRip.Rus.Eng]\S03E01.The.Empty.Hearse.1080p.BDRip.Rus.Eng.mkv
Format                           : Matroska
File size                        : 13.4 GiB
Duration                         : 1h 26mn
Overall bit rate                 : 22.2 Mbps
Movie name                       : Release for PIRAT.CA
Encoded date                     : UTC 2014-04-24 16:12:18
Writing application              : mkvmerge v6.0.0 ('Coming Up For Air') built on Jan 20 2013 09:52:00
Writing library                  : libebml v1.3.0 + libmatroska v1.4.0
Video
ID                               : 1
Format                           : AVC
Format/Info                      : Advanced Video Codec
Format profile                   : [email protected]
Format settings, CABAC           : Yes
Format settings, ReFrames        : 4 frames
Muxing mode                      : Container [email protected]
Codec ID                         : V_MPEG4/ISO/AVC
Duration                         : 1h 26mn
Bit rate                         : 19.5 Mbps
Width                            : 1 916 pixels
Height                           : 1 080 pixels
Display aspect ratio             : 16:9
Frame rate                       : 25.000 fps
Color space                      : YUV
Chroma subsampling               : 4:2:0
Bit depth                        : 8 bits
Scan type                        : Progressive
Bits/(Pixel*Frame)               : 0.377
Stream size                      : 11.8 GiB (88%)
Writing library                  : x264 core 142 r2389 956c8d8
Encoding settings                : cabac=1 / ref=4 / deblock=1:-3:-3 / analyse=0x3:0x133 / me=tesa / subme=10 / psy=1 / psy_rd=1.00:0.00 / mixed_ref=1 / me_range=24 / chroma_me=1 / trellis=2 / 8x8dct=1 / cqm=0 / deadzone=21,11 / fast_pskip=0 / chroma_qp_offset=-2 / threads=12 / lookahead_threads=2 / sliced_threads=0 / nr=0 / decimate=0 / interlaced=0 / bluray_compat=0 / constrained_intra=0 / bframes=8 / b_pyramid=2 / b_adapt=2 / b_bias=0 / direct=3 / weightb=1 / open_gop=0 / weightp=2 / keyint=250 / keyint_min=25 / scenecut=40 / intra_refresh=0 / rc_lookahead=60 / rc=crf / mbtree=0 / crf=17.0 / qcomp=0.60 / qpmin=0 / qpmax=69 / qpstep=4 / vbv_maxrate=62500 / vbv_bufsize=78125 / crf_max=0.0 / nal_hrd=none / filler=0 / ip_ratio=1.40 / pb_ratio=1.30 / aq=1:0.80 / zones=8499,8546,crf=15/8658,8696,crf=12/9034,9074,crf=15/9145,9181,crf=12/12909,13708,crf=14/25595,25639,crf=13/39298,39369,crf=15/39405,39437,crf=15/63661,63720,crf=14/69143,69204,crf=15/69232,69253,crf=15/69487,69551,crf=15/69782,69838,crf=15/69876,69896,crf=15/77716,77729,crf=15/77752,77787,crf=15/77793,77851,crf=15/77930,77966,crf=15/80919,80976,crf=15/93043,93336,crf=15/115797,115891,crf=14/125056,125089,crf=15/125149,125211,crf=15/125231,125269,crf=15/125336,125410,crf=15/125664,125728,crf=15/125909,126057,crf=15/126235,126329,crf=15/126365,126462,crf=15/127297,127393,crf=13
Language                         : English
Audio #1
ID                               : 2
Format                           : DTS
Format/Info                      : Digital Theater Systems
Codec ID                         : A_DTS
Duration                         : 1h 26mn
Bit rate mode                    : Constant
Bit rate                         : 755 Kbps
Channel(s)                       : 2 channels
Channel positions                : Front: L R
Sampling rate                    : 48.0 KHz
Bit depth                        : 16 bits
Stream size                      : 467 MiB (3%)
Title                            : Дубляж [ОРТ]
Language                         : Russian
Audio #2
ID                               : 3
Format                           : DTS
Format/Info                      : Digital Theater Systems
Codec ID                         : A_DTS
Duration                         : 1h 26mn
Bit rate mode                    : Constant
Bit rate                         : 1 510 Kbps
Channel(s)                       : 6 channels
Channel positions                : Front: L C R, Side: L R, LFE
Sampling rate                    : 48.0 KHz
Bit depth                        : 24 bits
Stream size                      : 934 MiB (7%)
Language                         : English
Text #1
ID                               : 4
Format                           : UTF-8
Codec ID                         : S_TEXT/UTF8
Codec ID/Info                    : UTF-8 Plain Text
Title                            : forced
Language                         : Russian
Text #2
ID                               : 5
Format                           : UTF-8
Codec ID                         : S_TEXT/UTF8
Codec ID/Info                    : UTF-8 Plain Text
Title                            : ОРТ
Language                         : Russian
Text #3
ID                               : 6
Format                           : UTF-8
Codec ID                         : S_TEXT/UTF8
Codec ID/Info                    : UTF-8 Plain Text
Title                            : N-Team
Language                         : Russian
Text #4
ID                               : 7
Format                           : UTF-8
Codec ID                         : S_TEXT/UTF8
Codec ID/Info                    : UTF-8 Plain Text
Title                            : N-Team (SDH)
Language                         : Russian
Text #5
ID                               : 8
Format                           : UTF-8
Codec ID                         : S_TEXT/UTF8
Codec ID/Info                    : UTF-8 Plain Text
Title                            : MemoryOnSmells
Language                         : Russian
Text #6
ID                               : 9
Format                           : UTF-8
Codec ID                         : S_TEXT/UTF8
Codec ID/Info                    : UTF-8 Plain Text
Language                         : English
Menu
00:00:00.000                     : en:00:00:00.000
00:10:44.680                     : en:00:10:44.680
00:17:05.600                     : en:00:17:05.600
00:31:26.320                     : en:00:31:26.320
00:43:55.680                     : en:00:43:55.680
00:55:39.480                     : en:00:55:39.480
01:02:21.760                     : en:01:02:21.760
01:12:02.760                     : en:01:12:02.760
Download / Скачать

Хотите скачать бесплатно? Зарегистрируйтесь на сайте (ссылка на регистрацию). Pirat.ca - самый быстрый торрент трекер в рунете!

Как скачивать  ·   Что такое торрент  ·   Рейтинг и ограничения

Пост 24-Апр-2014 20:30 (спустя 16 минут)

Топик был перенесен из форума Зарубежные сериалы (Трюм) в форум Зарубежные сериалы
kugesan
 

AlAnRu

Мичман

20

Пост 18-Май-2016 20:28 (спустя 2 года)

[Q] 

Йохо-хоу!!! Свистать всех на верх!!! Раздавать будем или как? Эй, вернитесь на раздачу...
[Профиль]  [ЛС] 
Показать сообщения:    
Ответить на тему

Текущее время: Сегодня 00:36

Часовой пояс: GMT + 4



Вы не можете начинать темы
Вы не можете отвечать на сообщения
Вы не можете редактировать свои сообщения
Вы не можете удалять свои сообщения
Вы не можете голосовать в опросах
Вы не можете прикреплять файлы к сообщениям
Вы не можете скачивать файлы

▼ Вниз