ML
     
  Уважаемый Гость!
Вы можете поддержать проект и зарегистрироваться у наших партнеров - онлайн-стратегия MyLands. При регистрации в игре Вы получите код, который сможете активировать после регистрации на pirat.ca и получить 1000 дублонов.

Ваш код:
5af7de75d3db09b6a37bc8bab71b0e87ccde73d6
 
     

Фарго / Fargo / Сезон: 1 / Серии: 1-10 (10) (Мэтт Шекман / Matt Shakman) [2014 г., драма, криминал, WEB-DL, 720p] MVO (LostFilm, NewStudiо) + DVO (Кубик в Кубе) + Original (Eng) + Sub (Eng)

Ответить на тему
 
Автор
Сообщение

Пост 02-Май-2014 10:06

[Q] 

TERMOS

Легенда

-Фарго / Fargo
«Aw jeez, here we go again»
-- Производство: США
Жанр: драма, криминал
Год выпуска: 2014 г.
Продолжительность: 10 х ~00:52:00
Мировая премьера: 15 апреля 2014
Перевод: Профессиональный (многоголосый, закадровый) [LostFilm]
Перевод 2: Профессиональный (двухголосый, закадровый) [Кубик в Кубе]
Перевод 3: Профессиональный (многоголосый, закадровый) [NewStudio]
Оригинальный аудиопоток: английский
Режиссер: Мэтт Шекман / Matt Shakman, Скотт Уинант / Scott Winant, Адам Бернштейн / Adam Bernstein-В ролях: Билли Боб Торнтон, Мартин Фриман, Эллисон Толман, Колин Хэнкс, Боб Оденкёрк, Джули Энн Эмери, Джои Кинг, Оливер Платт, Кейт Уолш, Спенсер Древер-Описание: Бродяга по имени Лорн приезжает в небольшой городок в штате Миннесота. Он поражает местное население своей злобой и жестокостью, а также подчиняет себе страхового агента Лестера Найгерта...
- - -Качество видео: WEB-DL
Контейнер: MKV
Стандарт разрешения: 720p
Видео кодек: H.264/AVC
Аудио кодек: AC3
Видео: 1280×720, 23.976 fps, ~4000 kbps avg
Аудио: Russian: 48 kHz, AC3, 3/2 (L,C,R,l,r) + LFE ch, ~384.00 kbps avg |Многоголосый закадровый, LostFilm|
Аудио #2: Russian: 48 kHz, AC3, 3/2 (L,C,R,l,r) + LFE ch, ~384.00 kbps avg |Двухголосый закадровый, Кубик в Кубе|
Аудио #3: Russian: 48 kHz, AC3, 3/2 (L,C,R,l,r) + LFE ch, ~384.00 kbps avg |Многоголосый закадровый, NewStudio|
Аудио #4: English: 48 kHz, AC3, 3/2 (L,C,R,l,r) + LFE ch, ~384.00 kbps avg
Cубтитры: английские
01: The Crocodile's Dilemma / Дилемма крокодила
02: The Rooster Prince / Принц-петух
03: A Muddy Road / Грязное дельце
04: Eating the Blame / Съедая улику
05: The Six Ungraspables / Шесть непостижимых
06: Buridan's Ass / Буриданов осёл
07: Who Shaves the Barber? / Кто стрижёт парикмахера?
08: The Heap / Завал
09: A Fox, a Rabbit, and a Cabbage / Лисица, заяц и капуста
10: Morton's Fork / Вилка Мортона
Код:
General
Complete name                    : Y:\Uploads\Pirat.Ca\Fargo - Season 01 (2014)[720p.WEB-DL.3xRus.Eng]\Fargo.S01E01.720p.WEB-DL.3xRus.Eng.mkv
Format                           : Matroska
File size                        : 2.93 GiB
Duration                         : 1h 12mn
Overall bit rate                 : 5 805 Kbps
Movie name                       : Fargo S01E01 - The Crocodile's Dilemma
Encoded date                     : UTC 2014-04-29 09:22:36
Writing application              : mkvmerge v6.9.1 ('Blue Panther') 64bit built on Apr 18 2014 18:23:38
Writing library                  : libebml v1.3.0 + libmatroska v1.4.1
Video
ID                               : 1
Format                           : AVC
Format/Info                      : Advanced Video Codec
Format profile                   : [email protected]
Format settings, CABAC           : No
Format settings, ReFrames        : 2 frames
Format settings, GOP             : M=2, N=30
Muxing mode                      : Container [email protected]
Codec ID                         : V_MPEG4/ISO/AVC
Duration                         : 1h 12mn
Bit rate mode                    : Variable
Bit rate                         : 4 154 Kbps
Width                            : 1 280 pixels
Height                           : 720 pixels
Display aspect ratio             : 16:9
Frame rate                       : 23.976 fps
Color space                      : YUV
Chroma subsampling               : 4:2:0
Bit depth                        : 8 bits
Scan type                        : Progressive
Bits/(Pixel*Frame)               : 0.188
Stream size                      : 2.10 GiB (72%)
Title                            : Fargo - Season 1 (2014): 01 - The Crocodile's Dilemma / Дилемма крокодила
Language                         : English
Color primaries                  : BT.709-5, BT.1361, IEC 61966-2-4, SMPTE RP177
Transfer characteristics         : BT.709-5, BT.1361
Matrix coefficients              : BT.709-5, BT.1361, IEC 61966-2-4 709, SMPTE RP177
Audio #1
ID                               : 2
Format                           : AC-3
Format/Info                      : Audio Coding 3
Mode extension                   : CM (complete main)
Codec ID                         : A_AC3
Duration                         : 1h 12mn
Bit rate mode                    : Constant
Bit rate                         : 384 Kbps
Channel(s)                       : 6 channels
Channel positions                : Front: L C R, Side: L R, LFE
Sampling rate                    : 48.0 KHz
Bit depth                        : 16 bits
Stream size                      : 198 MiB (7%)
Title                            : DD 5.1 @ 384 kbps (LostFilm)
Language                         : Russian
Audio #2
ID                               : 3
Format                           : AC-3
Format/Info                      : Audio Coding 3
Mode extension                   : CM (complete main)
Codec ID                         : A_AC3
Duration                         : 1h 12mn
Bit rate mode                    : Constant
Bit rate                         : 384 Kbps
Channel(s)                       : 6 channels
Channel positions                : Front: L C R, Side: L R, LFE
Sampling rate                    : 48.0 KHz
Bit depth                        : 16 bits
Stream size                      : 198 MiB (7%)
Title                            : DD 5.1 @ 384 kbps (Кубик в Кубе)
Language                         : Russian
Audio #3
ID                               : 4
Format                           : AC-3
Format/Info                      : Audio Coding 3
Mode extension                   : CM (complete main)
Codec ID                         : A_AC3
Duration                         : 1h 12mn
Bit rate mode                    : Constant
Bit rate                         : 384 Kbps
Channel(s)                       : 6 channels
Channel positions                : Front: L C R, Side: L R, LFE
Sampling rate                    : 48.0 KHz
Bit depth                        : 16 bits
Stream size                      : 198 MiB (7%)
Title                            : DD 5.1 @ 384 kbps (NewStudio)
Language                         : Russian
Audio #4
ID                               : 5
Format                           : AC-3
Format/Info                      : Audio Coding 3
Mode extension                   : CM (complete main)
Codec ID                         : A_AC3
Duration                         : 1h 12mn
Bit rate mode                    : Constant
Bit rate                         : 384 Kbps
Channel(s)                       : 6 channels
Channel positions                : Front: L C R, Side: L R, LFE
Sampling rate                    : 48.0 KHz
Bit depth                        : 16 bits
Stream size                      : 198 MiB (7%)
Title                            : DD 5.1 @ 384 kbps
Language                         : English
Text
ID                               : 6
Format                           : UTF-8
Codec ID                         : S_TEXT/UTF8
Codec ID/Info                    : UTF-8 Plain Text
Language                         : English
Download / Скачать

Хотите скачать бесплатно? Зарегистрируйтесь на сайте (ссылка на регистрацию). Pirat.ca - самый быстрый торрент трекер в рунете!

Как скачивать  ·   Что такое торрент  ·   Рейтинг и ограничения



Последний раз редактировалось: TERMOS (2014-06-22 18:36), всего редактировалось 8 раз(а)

TERMOS ®

Легенда

12015

Пост 02-Май-2014 10:17 (спустя 10 минут)

[Q] 

Моё ИМХО: после завершения сериала "Во все тяжкие" я подумал - мир умер. Да нифига!!! Мир то жив!!! ad

_________________
[Профиль]  [ЛС] 

TERMOS ®

Легенда

12015

Пост 07-Май-2014 05:21 (спустя 4 дня)

[Q] 

Добавлена 3-я серия. Обновите торрент-файл!

_________________
[Профиль]  [ЛС] 

Нэйтон

Флибустьер

Пост 07-Май-2014 07:48 (спустя 2 часа 27 минут)

[Q] 

Заценим.... по описанию интересный..... Автору респект!!!
[Профиль]  [ЛС] 

TERMOS ®

Легенда

12015

Пост 07-Май-2014 10:07 (спустя 2 часа 19 минут)

[Q] 

Нэйтон, спасибо! Главное, после просмотра мнением поделитесь... ad

_________________
[Профиль]  [ЛС] 

Нэйтон

Флибустьер

Пост 08-Май-2014 08:04 (спустя 21 час)

[Q] 

Сериал вообще классный..... еще и в озвучке КвК Лови бочку
Всем рекомендую ay
[Профиль]  [ЛС] 

DocSoft

Гроза морей

71

Пост 08-Май-2014 21:27 (спустя 13 часов)

[Q] 

Декстер, Во все тяжкие, Ходячие мертвецы , Калифорникейшн. И тут я думал что всё кончилось... Но нет же на самом деле не всё, говорят это именно то что нужно. Ну чтож заценим !!!

_________________
Всего одна Любовь !
[Профиль]  [ЛС] 

TERMOS ®

Легенда

12015

Пост 10-Май-2014 13:42 (спустя 1 день 16 часов)

[Q] 

Добавлена 4-я серия. Обновите торрент-файл!

_________________
[Профиль]  [ЛС] 

proh2000

Шкипер

Пост 10-Май-2014 14:36 (спустя 53 минуты)

[Q] 

как по мне полная фигня
[Профиль]  [ЛС] 

TERMOS ®

Легенда

12015

Пост 17-Май-2014 23:51 (спустя 7 дней)

[Q] 

Добавлена 5-я серия. Обновите торрент-файл!

_________________
[Профиль]  [ЛС] 

TERMOS ®

Легенда

12015

Пост 27-Май-2014 05:00 (спустя 9 дней)

[Q] 

Добавлена 6-я серия. Обновите торрент-файл!

_________________
[Профиль]  [ЛС] 

TERMOS ®

Легенда

12015

Пост 03-Июн-2014 17:37 (спустя 7 дней)

[Q] 

Добавлена 7-я серия. А так же:
В сериях 1 и 2 заменены дорожки с озвучкой от LostFilm.
Причины замены:
1) перевыделены голоса;
2) откорректирована расстановка фраз;
3) улучшено качество наложения.
Во 2-ой серии добавлены форсированные русские субтитры на непереведенный фрагмент песни в финале серии.
Обновите торрент-файл!

_________________
[Профиль]  [ЛС] 

TERMOS ®

Легенда

12015

Пост 12-Июн-2014 09:24 (спустя 8 дней)

[Q] 

Добавлена 8-я серия. Обновите торрент-файл!

_________________
[Профиль]  [ЛС] 

TERMOS ®

Легенда

12015

Пост 15-Июн-2014 22:32 (спустя 3 дня)

[Q] 

Добавлена 9-я серия. Обновите торрент-файл!

_________________
[Профиль]  [ЛС] 

TERMOS ®

Легенда

12015

Пост 22-Июн-2014 18:38 (спустя 6 дней)

[Q] 

Добавлена 10-я серия. Финал сезона! az Обновите торрент-файл!

_________________
[Профиль]  [ЛС] 

Пост 22-Июн-2014 20:58 (спустя 2 часа 20 минут)

Топик был перенесен из форума Сериалы в эфире в форум Зарубежные сериалы
kugesan
 

Ikoka_Divo

452

Пост 26-Июн-2014 08:39 (спустя 3 дня)

[Q] 

Столько мне его хвалили... Ставлю в торрент, когда-нибудь скачается...)
Спасибо за раздачу!

_________________

[Профиль]  [ЛС] 

TERMOS ®

Легенда

12015

Пост 14-Мар-2015 21:47 (спустя 8 месяцев 18 дней)

[Q] 

Ikoka_Divo, ну и как?))

_________________
[Профиль]  [ЛС] 
Показать сообщения:    
Ответить на тему

Текущее время: Сегодня 14:08

Часовой пояс: GMT + 4



Вы не можете начинать темы
Вы не можете отвечать на сообщения
Вы не можете редактировать свои сообщения
Вы не можете удалять свои сообщения
Вы не можете голосовать в опросах
Вы не можете прикреплять файлы к сообщениям
Вы не можете скачивать файлы

▼ Вниз