ML
     
  Уважаемый Гость!
Вы можете поддержать проект и зарегистрироваться у наших партнеров - онлайн-стратегия MyLands. При регистрации в игре Вы получите код, который сможете активировать после регистрации на pirat.ca и получить 1000 дублонов.

Ваш код:
2932e5898d0a27592397f70b82a5834d1e70ea19
 
     

Сухим из воды / The Escape Artist / Сезон: 1 / Серии: 1-3 из 3 (Брайан Уэлш / Brian Welsh) [2013 г., Триллер, драма, HDTVRip] VO

Ответить на тему
 
Автор
Сообщение

Пост 05-Май-2014 12:48

[Q] 

burnash113

Лоцман

-Сухим из воды / The Escape Artist-Серии 1- 3 из 3- Производство: Великобритания
Жанр: Триллер, драма
Год выпуска: 2013 г.
Продолжительность: 3~ 00:58:00
Российская премьера: 29 октября 2013
Перевод: Любительский (одноголосый, закадровый)
Режиссер: Брайан Уэлш / Brian Welsh-В ролях: Дэвид Теннант, Тоби Кеббелл, Гас Барри, Брид Бреннан, Роберт А. Фостер, Тони Гарднер, Роксанна Грегори, Эшли Дженсен, Энтон Лессер, Рой Мэрсден-Описание: Уилл Бертон — талантливый младший адвокат, обладающий несравненным интеллектом и невероятным обаянием. Он специализируется на делах по тяжким уголовным преступлениям. Как адвокат, он пользуется большим спросом, так как не проиграл ни одного дела. Но иногда гораздо лучше проиграть, чем выиграть. Гораздо лучше...-Качество видео: HDTVRip
Контейнер: AVI
Видео кодек: XviD
Аудио кодек: MP3
Видео: 720x400 (1.80:1), 25 fps, XviD build 73 ~850 kbps avg, 0.12 bit/pixel
Аудио: 48 kHz, MPEG Layer 3, 2 ch, ~128.00 kbps avg
Cубтитры: отсутствуют
Общее
Полное имя : D:\The.Escape.Artist.2013\The.escape.artist.1x01.2013.HDTVRip.avi
Формат : AVI
Формат/Информация : Audio Video Interleave
Размер файла : 403 Мбайт
Продолжительность : 57 м.
Общий поток : 989 Кбит/сек
Программа кодирования : VirtualDubMod 1.5.10.3 | www.virtualdub-fr.org || (build 2550/release)
Библиотека кодирования : VirtualDubMod build 2550/release
Видео
Идентификатор : 0
Формат : MPEG-4 Visual
Профиль формата : Advanced [email protected]
Параметр BVOP формата : 2
Параметр QPel формата : Нет
Параметр GMC формата : Без точки перехода
Параметр матрицы формата : Выборочная
Идентификатор кодека : XVID
Идентификатор кодека/Подсказка : XviD
Продолжительность : 57 м.
Битрейт : 851 Кбит/сек
Ширина : 720 пикселей
Высота : 400 пикселей
Соотношение сторон : 16:9
Частота кадров : 25,000 кадров/сек
Цветовое пространство : YUV
Субдискретизация насыщенности : 4:2:0
Битовая глубина : 8 бит
Тип развёртки : Прогрессивная
Метод сжатия : С потерями
Бит/(Пиксели*Кадры) : 0.118
Размер потока : 347 Мбайт (86%)
Библиотека кодирования : XviD 73
Аудио
Идентификатор : 1
Формат : MPEG Audio
Версия формата : Version 1
Профиль формата : Layer 3
Идентификатор кодека : 55
Идентификатор кодека/Подсказка : MP3
Продолжительность : 57 м.
Вид битрейта : Постоянный
Битрейт : 128 Кбит/сек
Каналы : 2 канала
Частота : 48,0 КГц
Метод сжатия : С потерями
Размер потока : 52,2 Мбайт (13%)
Выравнивание : Соединение по промежуткам
Продолжительность промежутка : 40 мс. (1,00 видеокадр)
Время предзагрузки промежутка : 504 мс.
Библиотека кодирования : LAME3.99r
Настройки программы : -m s -V 4 -q 2 -lowpass 17 -b 128
Download / Скачать

Хотите скачать бесплатно? Зарегистрируйтесь на сайте (ссылка на регистрацию). Pirat.ca - самый быстрый торрент трекер в рунете!

Как скачивать  ·   Что такое торрент  ·   Рейтинг и ограничения

Пост 07-Май-2014 06:47 (спустя 1 день 17 часов)

Топик был перенесен из форума Зарубежные сериалы (Трюм) в форум Зарубежные сериалы
erchine
 
Показать сообщения:    
Ответить на тему

Текущее время: Сегодня 08:00

Часовой пояс: GMT + 4



Вы не можете начинать темы
Вы не можете отвечать на сообщения
Вы не можете редактировать свои сообщения
Вы не можете удалять свои сообщения
Вы не можете голосовать в опросах
Вы не можете прикреплять файлы к сообщениям
Вы не можете скачивать файлы

▼ Вниз