ML
     
  Уважаемый Гость!
Вы можете поддержать проект и зарегистрироваться у наших партнеров - онлайн-стратегия MyLands. При регистрации в игре Вы получите код, который сможете активировать после регистрации на pirat.ca и получить 1000 дублонов.

Ваш код:
47bfc18b89c74e4ae0d974e9b6943639e2bff08e
 
     

Грошовые Ужасы / Страшные сказки / Penny Dreadful / Сезон: 1 / Полный / Серии: 8 из 8 (Хуан Антонио Байона / Juan Antonio Bayona, ...) [2014 г., ужасы, драма, HDTVRip] MVO (LostFilm)

Ответить на тему
 
Автор
Сообщение

Пост 07-Май-2014 15:32

[Q] 

kugesan

-Грошовые Ужасы / Страшные сказки / Penny Dreadful
«There is some thing within us all»
-- Производство: США, Ирландия, Великобритания
Жанр: ужасы, драма
Год выпуска: 2014 г.-Мировая премьера: 11 мая 2014
Российская премьера: 12 мая 2014-Озвучка: Студия |LostFilm|
Перевод: Многоголосый закадровый, профессиональный-Режиссер: Хуан Антонио Байона / Juan Antonio Bayona, Коки Гидройч / Coky Giedroyc, Джеймс Хоуз / James Hawes, ...-В ролях: Тимоти Далтон, Ева Грин, Джош Хартнетт, Рори Киннер, Хелен МакКрори, Билли Пайпер, Гарри Тредэвэй, Рив Карни, Алан Армстронг, Рик Берн ...-Описание:
Лондон, сентябрь 1891 года. Закат эпохи викторианской Англии. Разгул преступности и разврата, случившийся ввиду паршивой политики правительства, достиг апогея. Люди боятся выходить на улицы. И совсем невовремя для полиции маньяк растерзал в клочья женщину с ребёнком, из-за чего начали курсировать слухи о возвращении Джека-Потрошителя.
В этот же самый момент в городе находился заезжий цирк-шапито, где звездой был стрелок-американец Итан Чандлер. Грани таланта Итана сверкнули так ярко, что Итан получил предложение ночного задания от таинственной Ванессы Айвз. Но он и представить не мог, что в ходе задания выяснит, что ад был вовсе не под землёй, а в самом сердце Лондона. К делу подключается юный анатом Виктор Франкенштейн, после чего события принимают совершенно неожиданный оборот...-Сезон: 1
Серии: 8 из 8 серий
Продолжительность: ~ 00:52:00 мин серия-Качество видео: HDTVRip
Контейнер: AVI
Видео кодек: XviD
Аудио кодек: MP3
Видео: MPEG-4 Visual at 834 Кбит/сек: 720 x 400 (1.800) at 23.976 fps: 0.121 Бит/Пиксели
Аудио Rus: MPEG Audio at 192 Кбит/сек: 2 канала, 48,0 КГц |LostFilm|
Cубтитры: отсутствуют
- -
  • Ночная работа (Night Work)
  • Сеанс (Séance)
  • Воскрешение (Resurrection)
  • Полусвет (Demimonde)
  • Ближе, чем сестры (Closer Than Sisters)
  • То, что смерть соединила (What Death Can Join Together)
  • Одержимость (Possession)
  • Гран-Гиньоль (Grand Guignol)
-
Код:
Общее
Полное имя                               : E:\_Сериалы\_Сериалы\Бульварные ужасы\Penny Dreadfu.s01.LostFilm\Penny.Dreadful.S01E01.rus.LostFilm.TV.avi
Формат                                   : AVI
Формат/Информация                        : Audio Video Interleave
Размер файла                             : 391 Мбайт
Продолжительность                        : 52 м.
Режим общего битрейта                    : Переменный
Общий поток                              : 1033 Кбит/сек
Программа кодирования                    : Nandub v1.0rc2
Библиотека кодирования                   : Nandub build 1853/release
Видео
Идентификатор                            : 0
Формат                                   : MPEG-4 Visual
Профиль формата                          : [email protected]
Параметр BVOP формата                    : Нет
Параметр QPel формата                    : Нет
Параметр GMC формата                     : Без точки перехода
Параметр матрицы формата                 : Default (H.263)
Идентификатор кодека                     : XVID
Идентификатор кодека/Подсказка           : XviD
Продолжительность                        : 52 м.
Битрейт                                  : 834 Кбит/сек
Ширина                                   : 720 пикселей
Высота                                   : 400 пикселей
Соотношение сторон                       : 16:9
Частота кадров                           : 23,976 кадра/сек
Цветовое пространство                    : YUV
Субдискретизация насыщенности            : 4:2:0
Битовая глубина                          : 8 бит
Тип развёртки                            : Прогрессивная
Метод сжатия                             : С потерями
Бит/(Пиксели*Кадры)                      : 0.121
Размер потока                            : 316 Мбайт (81%)
Библиотека кодирования                   : XviD 1.2.1 (UTC 2008-12-04)
Аудио
Идентификатор                            : 1
Формат                                   : MPEG Audio
Версия формата                           : Version 1
Профиль формата                          : Layer 3
Режим                                    : Joint stereo
Идентификатор кодека                     : 55
Идентификатор кодека/Подсказка           : MP3
Продолжительность                        : 52 м.
Вид битрейта                             : Переменный
Битрейт                                  : 192 Кбит/сек
Каналы                                   : 2 канала
Частота                                  : 48,0 КГц
Метод сжатия                             : С потерями
Размер потока                            : 70,5 Мбайт (18%)
Выравнивание                             : Соединение по промежуткам
Продолжительность промежутка             : 24  мс. (0,58 видеокадр)
Время предзагрузки промежутка            : 519  мс.
Библиотека кодирования                   : LAME3.97b
Настройки программы                      : -m j -V 4 -q 3 -lowpass 18.6 --abr 192
-
-Скриншоты:
-
-Добавлена восьмая, заключительная, серия первого сезона
Второй сезон ожидается в 2015 году.
Download / Скачать

Хотите скачать бесплатно? Зарегистрируйтесь на сайте (ссылка на регистрацию). Pirat.ca - самый быстрый торрент трекер в рунете!

Как скачивать  ·   Что такое торрент  ·   Рейтинг и ограничения



Последний раз редактировалось: kugesan (2014-07-02 12:43), всего редактировалось 8 раз(а)

Francis_Drake

Флибустьер

1474

Пост 07-Май-2014 18:56 (спустя 3 часа)

[Q] 

ООО как! Спасибо! Премного благодарен!
[Профиль]  [ЛС] 

kugesan ®

56710

Пост 07-Май-2014 19:02 (спустя 5 минут)

[Q] 

Приятного просмотра!!!

_________________

В мире две бесконечности: вселенная и человеческая глупость - Альберт Эйнштен
«Можно вытащить человека из грязи, но нельзя вытащить грязь из человека»!
[Профиль]  [ЛС] 

gryuriev

Лоцман

Пост 16-Июн-2014 22:50 (спустя 1 месяц 9 дней)

[Q] 

От первой серии был приятно удивлен, но что то, чем дальше ...
[Профиль]  [ЛС] 

petr_vv86

Морской Волк

Пост 19-Июн-2014 12:30 (спустя 2 дня 13 часов)

[Q] 

Интересно почему такое название "Грошовые ужасы"?
[Профиль]  [ЛС] 

kugesan ®

56710

Пост 19-Июн-2014 12:55 (спустя 25 минут)

[Q] 

petr_vv86, Скачайте, посмотрите и сами поймете)

_________________

В мире две бесконечности: вселенная и человеческая глупость - Альберт Эйнштен
«Можно вытащить человека из грязи, но нельзя вытащить грязь из человека»!
[Профиль]  [ЛС] 

kugesan ®

56710

Пост 02-Июл-2014 12:44 (спустя 12 дней)

[Q] 

Добавлена восьмая, заключительная, серия первого сезона
Второй сезон ожидается в 2015 году.

_________________

В мире две бесконечности: вселенная и человеческая глупость - Альберт Эйнштен
«Можно вытащить человека из грязи, но нельзя вытащить грязь из человека»!
[Профиль]  [ЛС] 

maksssa

Шкипер

20

Пост 23-Авг-2014 19:53 (спустя 1 месяц 21 день)

[Q] 

Середина затянута, а так- ничего сериальчик)) Автору респект!!!
[Профиль]  [ЛС] 

Sanji Kock

Морской Волк

3

Пост 10-Сен-2014 23:30 (спустя 18 дней)

[Q] 

Скачиваю только ради Евы Грин )

_________________
Называйте меня Mr.Fox. Лисы захватят этот прекрасный мир и сделают его одной большой норой....
[Профиль]  [ЛС] 

FuckOOF

Корсар

Пост 22-Апр-2015 12:26 (спустя 7 месяцев 11 дней)

[Q] 

579034Скачиваю только ради Евы Грин )
делаю точно так же :D

_________________
[url] [/url]
[Профиль]  [ЛС] 

nikromonger

Морской Волк

Пост 27-Май-2015 23:18 (спустя 1 месяц 5 дней)

[Q] 

579034Скачиваю только ради Евы Грин )
Что за Ева? Блин заинтриговали, ладно придется посмотреть.
[Профиль]  [ЛС] 
Показать сообщения:    
Ответить на тему

Текущее время: Сегодня 07:06

Часовой пояс: GMT + 4



Вы не можете начинать темы
Вы не можете отвечать на сообщения
Вы не можете редактировать свои сообщения
Вы не можете удалять свои сообщения
Вы не можете голосовать в опросах
Вы не можете прикреплять файлы к сообщениям
Вы не можете скачивать файлы

▼ Вниз