ML
     
  Уважаемый Гость!
Вы можете поддержать проект и зарегистрироваться у наших партнеров - онлайн-стратегия MyLands. При регистрации в игре Вы получите код, который сможете активировать после регистрации на pirat.ca и получить 1000 дублонов.

Ваш код:
ee1288b6f7c09d9d2cb2a0f972aba30460ce9333
 
     

24 часа: Проживи ещё один день / 24: Live Another Day / Сезон: 9 / Серии: 1-12 (12) (Джон Кассар / Jon Cassar ...) [2014 г., боевик, триллер, драма, детектив, WEB-DL, 720p] MVO (NewStudio & NovaFilm, Jaskier) + Original (Eng) + Sub (Eng)

Ответить на тему
 
Автор
Сообщение

Пост 16-Май-2014 22:21

[Q] 

TERMOS

Легенда

-24 часа: Проживи ещё один день / 24: Live Another Day
«A New Day. A New Beginning. A New Bauer.»
(9 сезон)
-- Производство: США
Жанр: боевик, триллер, драма, детектив
Год выпуска: 2014 г.
Продолжительность: 12х ~00:44:00
Мировая премьера: 5 мая 2014
Перевод: Профессиональный (многоголосый, закадровый) [NewStudio & NovaFilm]
Перевод 2: Профессиональный (многоголосый, закадровый) [Jaskier]
Оригинальный аудиопоток: английский
Режиссер: Джон Кассар / Jon Cassar, Адам Кэйн / Adam Kane, Омар Мадха / Omar Madha ...-В ролях: Кифер Сазерленд, Гбенга Акиннагбе, Бенджамин Брэтт, Уильям Дивэйн, Тейт Донован, Мишель Фэйрли, Джиллз Мэттхи, Мэри Линн Райскаб, Ким Рэйвер, Ивонн Страховски-Описание: Прошло 4 года после событий восьмого дня оригинального сериала «24 часа». Действия разворачиваются в Лондоне, где готовится страшный теракт. Джек находится в бегах, его преследует ЦРУ, старые друзья теперь не на его стороне, но он готов пойти на все ради предотвращения теракта, который может изменить мир навсегда…
- - -Качество видео: WEB-DL
Контейнер: MKV
Стандарт разрешения: 720p
Видео кодек: H.264/AVC
Аудио кодек: AC3
Видео: 1280x720 at 23.976 fps, ~4300 kbps avg
Аудио: Russian: 48 kHz, AC3, 3/2 (L,C,R,l,r) + LFE ch, ~384.00.00 kbps avg |Многоголосый закадровый, NewStudio & NovaFilm|
Аудио #2: Russian: 48 kHz, AC3, 3/2 (L,C,R,l,r) + LFE ch, ~384.00.00 kbps avg |Многоголосый закадровый, Jaskier|
Аудио #3: English: 48 kHz, AC3, 3/2 (L,C,R,l,r) + LFE ch, ~384.00 kbps avg
Cубтитры: английские
• Озвучка NewStudio & NovaFilm с голосом Джека Бауэра из дубляжа, перевод: Madchester.ru.
• Роли озвучивали: Василий Дахненко, Петр "Гланц" Иващенко, Александр Дасевич, Елена Шульман.
• Озвучка Jaskier - перевод: Александр Митраков
• Роли озвучивали: Сергей Пономарев, Денис Строев, Вячеслав Козлов, Михаил Кшиштовский, Наталья Казначеева, Ксения Большакова
01: "11:00 a.m.-12:00 p.m."
02: "12:00 p.m.-1:00 p.m."
03: "1:00 p.m.-2:00 p.m."
04: "2:00 p.m.-3:00 p.m."
05: "3:00 p.m.-4:00 p.m."
06: "4:00 p.m.-5:00 p.m."
07: "5:00 p.m.-6:00 p.m."
08: "6:00 p.m.-7:00 p.m."
09: "7:00 p.m.-8:00 p.m."
10: "8:00 p.m.-9:00 p.m."
11: "9:00 p.m.-10:00 p.m."
12: "10:00 p.m.-11:00 a.m."
Код:
General
Complete name                    : X:\Uploads\Pirat.Ca\24. Live Another Day - Season 09 (2014)[720p.WEB-DL.Rus.Eng]\24.Live.Another.Day.S09E01.11.00.a.m.-12.00.p.m.2014.720p.WEB-DL.Rus.Eng.HDCLUB.mkv
Format                           : Matroska
File size                        : 1.73 GiB
Duration                         : 44mn 21s
Overall bit rate                 : 5 577 Kbps
Encoded date                     : UTC 2014-05-15 12:18:16
Writing application              : mkvmerge v6.9.1 ('Blue Panther') 64bit built on Apr 18 2014 18:23:38
Writing library                  : libebml v1.3.0 + libmatroska v1.4.1
Video
ID                               : 1
Format                           : AVC
Format/Info                      : Advanced Video Codec
Format profile                   : [email protected]
Format settings, CABAC           : No
Format settings, ReFrames        : 2 frames
Format settings, GOP             : M=2, N=27
Muxing mode                      : Container [email protected]
Codec ID                         : V_MPEG4/ISO/AVC
Duration                         : 44mn 20s
Bit rate mode                    : Variable
Bit rate                         : 4 314 Kbps
Width                            : 1 280 pixels
Height                           : 720 pixels
Display aspect ratio             : 16:9
Frame rate                       : 23.976 fps
Color space                      : YUV
Chroma subsampling               : 4:2:0
Bit depth                        : 8 bits
Scan type                        : Progressive
Bits/(Pixel*Frame)               : 0.195
Stream size                      : 1.34 GiB (77%)
Title                            : 24: Live Another Day. Season 09 Episode 01 "11:00 a.m.-12:00 p.m."
Language                         : English
Color primaries                  : BT.709-5, BT.1361, IEC 61966-2-4, SMPTE RP177
Transfer characteristics         : BT.709-5, BT.1361
Matrix coefficients              : BT.709-5, BT.1361, IEC 61966-2-4 709, SMPTE RP177
Audio #1
ID                               : 2
Format                           : AC-3
Format/Info                      : Audio Coding 3
Mode extension                   : CM (complete main)
Codec ID                         : A_AC3
Duration                         : 44mn 21s
Bit rate mode                    : Constant
Bit rate                         : 384 Kbps
Channel(s)                       : 6 channels
Channel positions                : Front: L C R, Side: L R, LFE
Sampling rate                    : 48.0 KHz
Bit depth                        : 16 bits
Stream size                      : 122 MiB (7%)
Title                            : AC3 5.1 @ 384 kbps - NewStudio & NovaFilm
Language                         : Russian
Audio #2
ID                               : 3
Format                           : AC-3
Format/Info                      : Audio Coding 3
Mode extension                   : CM (complete main)
Codec ID                         : A_AC3
Duration                         : 44mn 21s
Bit rate mode                    : Constant
Bit rate                         : 384 Kbps
Channel(s)                       : 6 channels
Channel positions                : Front: L C R, Side: L R, LFE
Sampling rate                    : 48.0 KHz
Bit depth                        : 16 bits
Stream size                      : 122 MiB (7%)
Title                            : AC3 5.1 @ 384 kbps - Jaskier
Language                         : Russian
Audio #3
ID                               : 4
Format                           : AC-3
Format/Info                      : Audio Coding 3
Mode extension                   : CM (complete main)
Codec ID                         : A_AC3
Duration                         : 44mn 21s
Bit rate mode                    : Constant
Bit rate                         : 384 Kbps
Channel(s)                       : 6 channels
Channel positions                : Front: L C R, Side: L R, LFE
Sampling rate                    : 48.0 KHz
Bit depth                        : 16 bits
Video delay                      : 20ms
Stream size                      : 122 MiB (7%)
Title                            : AC3 5.1 @ 384 kbps
Language                         : English
Text
ID                               : 5
Format                           : UTF-8
Codec ID                         : S_TEXT/UTF8
Codec ID/Info                    : UTF-8 Plain Text
Language                         : English
Download / Скачать

Хотите скачать бесплатно? Зарегистрируйтесь на сайте (ссылка на регистрацию). Pirat.ca - самый быстрый торрент трекер в рунете!

Как скачивать  ·   Что такое торрент  ·   Рейтинг и ограничения



Последний раз редактировалось: TERMOS (2014-07-23 19:32), всего редактировалось 7 раз(а)

TERMOS ®

Легенда

12043

Пост 20-Май-2014 23:25 (спустя 4 дня)

[Q] 

Добавлена 3-я серия. Обновите торрент-файл!

_________________
[Профиль]  [ЛС] 

TERMOS ®

Легенда

12043

Пост 28-Май-2014 16:54 (спустя 7 дней)

[Q] 

В 1-2-й серии исправлены дороги с озвучкой Jaskier и добавлена в 3-ю серию. Добавлена 4-я серия (только с озвучкой NewStudio & NovaFilm). Обновите торрент-файл!

_________________
[Профиль]  [ЛС] 

TERMOS ®

Легенда

12043

Пост 06-Июн-2014 05:26 (спустя 8 дней)

[Q] 

Добавлена 5-я серия. В 4-ю серию добавлена озвучка Jaskier. Обновите торрент-файл!

_________________
[Профиль]  [ЛС] 

TERMOS ®

Легенда

12043

Пост 13-Июн-2014 13:20 (спустя 7 дней)

[Q] 

Добавлена 6-я серия. Обновите торрент-файл!

_________________
[Профиль]  [ЛС] 

Roger

109529

Пост 13-Июн-2014 13:43 (спустя 23 минуты)

[Q] 

Обалдеть можно)) В своё время залпом просмотрел 8 сезонов, перерыл интернет в поисках инфы по 9-му... Но по всем раскладам выходило что продолжения не будет и вот(!) - случайно натыкаюсь на эту раздачу. Раздающему гран-мерси, респект и увага, ну и всё такое. All Films респект! PiratCa рулит! Jolly Roger Forever!!!
[Профиль]  [ЛС] 

TERMOS ®

Легенда

12043

Пост 13-Июн-2014 14:26 (спустя 43 минуты)

[Q] 

Roger, спасибо! az

_________________
[Профиль]  [ЛС] 

Roger

109529

Пост 13-Июн-2014 15:00 (спустя 33 минуты)

[Q] 

TERMOS, az
...Для полного счастья ещё бы Клан Сопрано 7 сезон и Рим 3))
[Профиль]  [ЛС] 

TERMOS ®

Легенда

12043

Пост 13-Июн-2014 15:47 (спустя 46 минут)

[Q] 

Roger, а этого пока не хватит? - 24 часа / 24 / Сезон: 1 / Серии: 1-14 (24) (Джон Кассар / Jon Cassar...) [2001 г., боевик, триллер, драма, детектив, WEB-DL, 720p] Dub (Первый канал) + Original (Eng) + Sub (Rus, Eng) (обновляемая)

_________________
[Профиль]  [ЛС] 

Roger

109529

Пост 13-Июн-2014 15:58 (спустя 10 минут)

[Q] 

TERMOS
просмотрел 8 сезонов
[Профиль]  [ЛС] 

TERMOS ®

Легенда

12043

Пост 22-Июн-2014 18:33 (спустя 9 дней)

[Q] 

Добавлена 7-я серия. Обновите торрент-файл!

_________________
[Профиль]  [ЛС] 

AmoZ

Флибустьер

3325

Пост 22-Июн-2014 22:08 (спустя 3 часа)

[Q] 

Стоит посмотреть предыдущие сезоны или можно начать сразу с этого?
[Профиль]  [ЛС] 

Roger

109529

Пост 22-Июн-2014 23:38 (спустя 1 час 30 минут)

[Q] 

Можно. Любой сезон можно посмотреть отдельно. Сезон сериала 24 часа - это 24 серии, каждая из которых - один час из суток, в течении которых происходит действие.
[Профиль]  [ЛС] 

TERMOS ®

Легенда

12043

Пост 02-Июл-2014 09:09 (спустя 9 дней)

[Q] 

Добавлены 8-я и 9-я серии. Обновите торрент-файл!

_________________
[Профиль]  [ЛС] 

TERMOS ®

Легенда

12043

Пост 23-Июл-2014 19:34 (спустя 21 день)

[Q] 

Добавлены 10-12-я серии. Финал сезона! az Обновите торрент-файл!

_________________
[Профиль]  [ЛС] 
Показать сообщения:    
Ответить на тему

Текущее время: Сегодня 18:21

Часовой пояс: GMT + 4



Вы не можете начинать темы
Вы не можете отвечать на сообщения
Вы не можете редактировать свои сообщения
Вы не можете удалять свои сообщения
Вы не можете голосовать в опросах
Вы не можете прикреплять файлы к сообщениям
Вы не можете скачивать файлы

▼ Вниз