ML
     
  Уважаемый Гость!
Вы можете поддержать проект и зарегистрироваться у наших партнеров - онлайн-стратегия MyLands. При регистрации в игре Вы получите код, который сможете активировать после регистрации на pirat.ca и получить 1000 дублонов.

Ваш код:
c3360d664ceb84802c84b88ed062a5d134e2ba97
 
     

Черный Список / The Blacklist / Сезон: 1 / Серии: 1-22 из 22 (Джейс Александр / Jace Alexander, Джо Карнахан / Joe Carnahan) [2013 г., триллер, драма, криминал, детектив, WEB-DLRip] DVO (To4ka)

Ответить на тему
 
Автор
Сообщение

Пост 17-Май-2014 21:36

[Q] 

mishanya___

-Черный Список / The Blacklist--
Производство: США
Жанр: триллер, драма, криминал, детектив
Год выпуска: 2013 г.
Продолжительность: 00:43:00 серия
Мировая премьера: 23 сентября 2013
Российская премьера: 12 октября 2013
Перевод: Любительский (двухголосый, закадровый) [To4ka]
Режиссеры: Джейс Александр / Jace Alexander, Джо Карнахан / Joe Carnahan, Майкл В. Уоткинс / Michael W. Watkins-В ролях:
Джеймс Спэйдер, Меган Бун, Диего Клаттенхофф, Гарри Дж. Ленникс, Райан Игголд, Ильфенеш Хадера, Джессика Ши Элверсон, Чарльз Бэйкер, Дельфина Белль, Ник Блеймаер, Парминдер К. Награ-Описание:
Один из самых разыскиваемых беглецов ФБР бывший правительственный агент Рэймонд Реддингтон неожиданно добровольно сдаётся властям. Самодовольный преступник-хитрец начинает играть с ФБР в каверзную многоходовую игру: он обещает помочь федералам поймать опаснейших преступников Америки при условии, что с ним будет работать неопытная сотрудница Лиз Кин. ФБР в лице Гарри Ленникса соглашается на странную сделку не без непредсказуемых последствий.
-

Качество видео: WEB-DLRip
Контейнер: AVI
Видео кодек: XviD
Аудио кодек: MP3
Видео: 720x400; ~ 1200 kbps; 23.976 fps; 0.17 Bits/Pixel
Аудио #1: 128 kbps; 2 ch; 48.0 KHz (Rus)
Аудио #2: 128 kbps; 2 ch; 48.0 KHz (Eng)
General
Complete name : E:\Torrents!!!!!!!!!!!!!!!!!!!!!\The Blacklist (S01)\The.Blacklist.s01e13.WEB-DLRip.Rus.Eng.avi
Format : AVI
Format/Info : Audio Video Interleave
File size : 450 MiB
Duration : 42mn 46s
Overall bit rate : 1 472 Kbps
Writing application : VirtualDubModRus 1.5.10.2 (build 2542/release)
Writing library : VirtualDubMod build 2542/release
Video
ID : 0
Format : MPEG-4 Visual
Format profile : Advanced [email protected]
Format settings, BVOP : Yes
Format settings, QPel : No
Format settings, GMC : No warppoints
Format settings, Matrix : Default (MPEG)
Codec ID : XVID
Codec ID/Hint : XviD
Duration : 42mn 46s
Bit rate : 1 202 Kbps
Width : 720 pixels
Height : 400 pixels
Display aspect ratio : 16:9
Frame rate : 23.976 fps
Color space : YUV
Chroma subsampling : 4:2:0
Bit depth : 8 bits
Scan type : Progressive
Compression mode : Lossy
Bits/(Pixel*Frame) : 0.174
Stream size : 368 MiB (82%)
Writing library : XviD 64
Audio #1
ID : 1
Format : MPEG Audio
Format version : Version 1
Format profile : Layer 3
Mode : Joint stereo
Mode extension : MS Stereo
Codec ID : 55
Codec ID/Hint : MP3
Duration : 42mn 46s
Bit rate mode : Constant
Bit rate : 128 Kbps
Channel(s) : 2 channels
Sampling rate : 48.0 KHz
Compression mode : Lossy
Stream size : 39.2 MiB (9%)
Alignment : Aligned on interleaves
Interleave, duration : 42 ms (1.00 video frame)
Interleave, preload duration : 504 ms
Audio #2
ID : 2
Format : MPEG Audio
Format version : Version 1
Format profile : Layer 3
Mode : Joint stereo
Codec ID : 55
Codec ID/Hint : MP3
Duration : 42mn 46s
Bit rate mode : Constant
Bit rate : 128 Kbps
Channel(s) : 2 channels
Sampling rate : 48.0 KHz
Compression mode : Lossy
Stream size : 39.2 MiB (9%)
Alignment : Aligned on interleaves
Interleave, duration : 42 ms (1.00 video frame)
Interleave, preload duration : 504 ms
Download / Скачать

Хотите скачать бесплатно? Зарегистрируйтесь на сайте (ссылка на регистрацию). Pirat.ca - самый быстрый торрент трекер в рунете!

Как скачивать  ·   Что такое торрент  ·   Рейтинг и ограничения

Пост 17-Май-2014 22:23 (спустя 46 минут)

Топик был перенесен из форума Зарубежные сериалы (Трюм) в форум Зарубежные сериалы
kugesan
 

sanches997

Морской Волк

Пост 19-Фев-2016 14:30 (спустя 1 год 9 месяцев)

[Q] 

Потрясающий сериал ! И хоть идея не нова, хочется смотреть новые и новые серии. Спасибо!!!
[Профиль]  [ЛС] 
Показать сообщения:    
Ответить на тему

Текущее время: Сегодня 10:03

Часовой пояс: GMT + 4



Вы не можете начинать темы
Вы не можете отвечать на сообщения
Вы не можете редактировать свои сообщения
Вы не можете удалять свои сообщения
Вы не можете голосовать в опросах
Вы не можете прикреплять файлы к сообщениям
Вы не можете скачивать файлы

▼ Вниз